Sin City A Dame to Kill For 2014 3D 1080p BluRay x264 SPRiNTER D


Size : 7.97 GiB (8562427074 Bytes)

Sin City: A Dame Fatal is based on three stories from Frank Miller and has elements of Just Another Saturday Night (Just Another Saturday Night), plus two new stories, one titled The Long Bad Night. Inside the gloomy Sin City, Dwight (Josh Brolin) is sought by the only woman he ever loved, Ava Lord (Eva Green), while Nancy (Jessica Alba) tries to cope with the death of Hartigan (Bruce Willis). The plot takes place before The Big Fat Kill (present in Sin City - Sin City) and explains how Dwight came to have a dramatically different face.

Title in Portuguese: Sin City A Dame Fatal
Original title: Sin City A Dame To Kill For
Country of Origin: United States
Genre: Crime | Thriller
Run Time: 1 hours and 42 minutes
Director: Robert Rodriguez
Release Year: 2014
IMDB Link: http://www.imdb.com/title/tt0458481/

Size: 7.97 GB
File extension: .MKV
Video Quality: Blu-Ray - 3D
Video codec: H.264 / AVC
Audio Codec: AC3 5.1 / DTS 5.1
Resolution: 1920 x 1040
Audio Language: Portuguese / English
Subtitles: Portuguese

Screens:
i.imgur.com/TcWlIPG.jpg
i.imgur.com/0aTFhfS.jpg


Format
















: Matroska
Format version












: Version 2
File size















: 7.96 GiB
Duration















: 1h 42mn
Overall bit rate











: 11.2 Mbps
Encoded date













: UTC 2014-11-05 14:59:32
Writing application










: mkvmerge v5.6.0 ('Kenya Kane') built on May 28 2012 06:47:39
Writing library












: libebml v1.2.2 + libmatroska v1.3.0

Video
ID


















: 1
Format
















: AVC
Format/Info














: Advanced Video Codec
Format profile












: [email protected]/* */
Format settings, CABAC








: Yes
Format settings, ReFrames







: 4 frames
Muxing mode














: Header stripping
Codec ID















: V_MPEG4/ISO/AVC
Duration















: 1h 42mn
Bit rate















: 9 212 Kbps
Width

















: 1 920 pixels
Height
















: 1 040 pixels
Display aspect ratio









: 1.85:1
Frame rate














: 23.976 fps
Color space














: YUV
Chroma subsampling










: 4:2:0
Bit depth















: 8 bits
Scan type















: Progressive
Bits/(Pixel*Frame)










: 0.192
Stream size














: 6.41 GiB (80%)
Writing library












: x264 core 142 r2479 dd79a61
Encoding settings











: cabac=1 / ref=4 / deblock=1:0:0 / analyse=0x3:0x133 / me=umh / subme=7 / psy=1 / psy_rd=1.00:0.00 / mixed_ref=1 / me_range=16 / chroma_me=1 / trellis=1 / 8x8dct=1 / cqm=0 / deadzone=21,11 / fast_pskip=0 / chroma_qp_offset=-2 / threads=12 / lookahead_threads=2 / sliced_threads=0 / nr=0 / decimate=1 / interlaced=0 / bluray_compat=0 / constrained_intra=0 / bframes=3 / b_pyramid=2 / b_adapt=1 / b_bias=0 / direct=1 / weightb=1 / open_gop=0 / weightp=2 / keyint=250 / keyint_min=23 / scenecut=40 / intra_refresh=0 / rc_lookahead=40 / rc=2pass / mbtree=1 / bitrate=9212 / ratetol=1.0 / qcomp=0.60 / qpmin=0 / qpmax=69 / qpstep=4 / cplxblur=20.0 / qblur=0.5 / ip_ratio=1.40 / aq=1:1.00
Language















: English
Default
















: Yes
Forced
















: No

Audio #1
ID


















: 2
Format
















: AC-3
Format/Info














: Audio Coding 3
Mode extension












: CM (complete main)
Format settings, Endianness






: Big
Muxing mode














: Header stripping
Codec ID















: A_AC3
Duration















: 1h 42mn
Bit rate mode













: Constant
Bit rate















: 448 Kbps
Channel(s)














: 6 channels
Channel positions











: Front: L C R, Side: L R, LFE
Sampling rate













: 48.0 KHz
Bit depth















: 16 bits
Compression mode











: Lossy
Stream size














: 327 MiB (4%)
Language















: Portuguese
Default
















: Yes
Forced
















: Yes

Audio #2
ID


















: 3
Format
















: DTS
Format/Info














: Digital Theater Systems
Muxing mode














: Header stripping
Codec ID















: A_DTS
Duration















: 1h 42mn
Bit rate mode













: Constant
Bit rate















: 1 510 Kbps
Channel(s)














: 6 channels
Channel positions











: Front: L C R, Side: L R, LFE
Sampling rate













: 48.0 KHz
Bit depth















: 24 bits
Compression mode











: Lossy
Stream size














: 1.08 GiB (14%)
Language















: English
Default
















: No
Forced
















: No



SEED PLEASE

ENJOY