SINGHAM RETURNS (2014) DVDSCR – x264 – MP3 – [1CD] – TEAMTNT EX


Size : 700.75 MiB (734792936 Bytes)

~General~

Year : 2014

Director : Rohit Shetty

Cast : Ajay Devgan, Kareena Kapoor Khan, Anupam Kher, Amole Gupte, Dayanand Shetty

Video : x264

Resolution : 640x272

Runtime : 2Hr 18Min 21Sec

Audio : Mp3

~Video~

Format : AVC
Format/Info : Advanced Video Codec
Format profile : [email protected]/* */
Format settings, CABAC : Yes
Format settings, ReFrames : 4 frames
Codec ID : V_MPEG4/ISO/AVC
Duration : 2h 18mn
Bit rate : 626 Kbps
Width : 640 pixels
Height : 272 pixels
Display aspect ratio : 2.35:1
Frame rate mode : Constant
Frame rate : 29.970 fps
Color space : YUV
Chroma subsampling : 4:2:0
Bit depth : 8 bits
Scan type : Progressive
Bits/(Pixel*Frame) : 0.120
Stream size : 608 MiB (87%)
Language : English
Default : Yes
Forced : No

~Audio~

Format : MPEG Audio
Format version : Version 1
Format profile : Layer 3
Mode : Joint stereo
Mode extension : MS Stereo
Codec ID : A_MPEG/L3
Codec ID/Hint : MP3
Duration : 2h 18mn
Bit rate mode : Constant
Bit rate : 80.0 Kbps
Channel(s) : 2 channels
Sampling rate : 32.0 KHz
Compression mode : Lossy
Delay relative to video : 8ms
Stream size : 79.2 MiB (11%)
Default : Yes
Forced : No

Screens>>
http://i.imgur.com/QS68YXy.png http://i.imgur.com/1gsDWsY.png http://i.imgur.com/girmNF3.png http://imgextra.biz/viewer.php?file=ivfpcl7qs10rpiklulq.png