Snapper Hero Snapchat Session 7 (03/24/2015) (Unedited)


Size : 35.85 MiB (37596089 Bytes)

Episode 7 from Snapper Hero (03/24/2015)

Tech Specs:
General
Complete name








: C:[...]snapperhero-25-03-2015-06_24_01.mov
Format











: MPEG-4
Format profile







: Base Media / Version 2
Codec ID










: mp42
File size










: 742 KiB
Duration










: 3s 600ms
Overall bit rate






: 1 688 Kbps
Encoded date








: UTC 2015-03-24 19:59:02
Tagged date









: UTC 2015-03-24 19:59:02

Video
ID













: 2
Format











: AVC
Format/Info









: Advanced Video Codec
Format profile







: [email protected]/* */
Format settings, CABAC



: Yes
Format settings, ReFrames


: 2 frames
Codec ID










: avc1
Codec ID/Info








: Advanced Video Coding
Duration










: 3s 600ms
Bit rate










: 1 421 Kbps
Width












: 376 pixels
Height











: 668 pixels
Display aspect ratio




: 0.563
Frame rate mode







: Constant
Frame rate









: 30.000 fps
Color space









: YUV
Chroma subsampling





: 4:2:0
Bit depth










: 8 bits
Scan type










: Progressive
Bits/(Pixel*Frame)





: 0.189
Stream size









: 624 KiB (84%)
Title












: Core Media Video
Encoded date








: UTC 2015-03-24 19:59:02
Tagged date









: UTC 2015-03-24 19:59:02
Color primaries







: BT.709
Transfer characteristics


: BT.709
Matrix coefficients





: BT.601
Color range









: Limited

Audio
ID













: 1
Format











: AAC
Format/Info









: Advanced Audio Codec
Format profile







: LC
Codec ID










: 40
Duration










: 3s 590ms
Source duration







: 3s 646ms
Bit rate mode








: Constant
Bit rate










: 256 Kbps
Channel(s)









: 2 channels
Channel positions






: Front: L R
Sampling rate








: 44.1 KHz
Compression mode






: Lossy
Stream size









: 113 KiB (15%)
Source stream size





: 114 KiB (15%)
Title












: Core Media Audio
Encoded date








: UTC 2015-03-24 19:59:02
Tagged date









: UTC 2015-03-24 19:59:02


Note: I just uploaded this torrent for those who are not able to watch it on snapchat. Please do it, if you can!