Snapper Hero Snapchat Session 9 (03/29/2015) (Unedited)


Size : 49.2 MiB (51587120 Bytes)

Episode 9 from Snapper Hero (03/29/2015)

Tech Specs:
General
Complete name








: C:[...]snapperhero-29-03-2015-23_18_18.mov
Format











: MPEG-4
Format profile







: Base Media / Version 2
Codec ID










: mp42
File size










: 1.23 MiB
Duration










: 3s 167ms
Overall bit rate






: 3 270 Kbps
Encoded date








: UTC 2015-03-29 20:07:10
Tagged date









: UTC 2015-03-29 20:07:10

Video
ID













: 2
Format











: AVC
Format/Info









: Advanced Video Codec
Format profile







: [email protected]/* */
Format settings, CABAC



: Yes
Format settings, ReFrames


: 2 frames
Codec ID










: avc1
Codec ID/Info








: Advanced Video Coding
Duration










: 3s 167ms
Bit rate










: 3 017 Kbps
Width












: 376 pixels
Height











: 668 pixels
Display aspect ratio




: 0.563
Frame rate mode







: Constant
Frame rate









: 30.000 fps
Color space









: YUV
Chroma subsampling





: 4:2:0
Bit depth










: 8 bits
Scan type










: Progressive
Bits/(Pixel*Frame)





: 0.400
Stream size









: 1.14 MiB (92%)
Title












: Core Media Video
Encoded date








: UTC 2015-03-29 20:07:10
Tagged date









: UTC 2015-03-29 20:07:10
Color primaries







: BT.709
Transfer characteristics


: BT.709
Matrix coefficients





: BT.601
Color range









: Limited

Audio
ID













: 1
Format











: AAC
Format/Info









: Advanced Audio Codec
Format profile







: LC
Codec ID










: 40
Duration










: 3s 163ms
Source duration







: 3s 228ms
Bit rate mode








: Constant
Bit rate










: 242 Kbps
Nominal bit rate






: 256 Kbps
Channel(s)









: 2 channels
Channel positions






: Front: L R
Sampling rate








: 44.1 KHz
Compression mode






: Lossy
Stream size









: 93.5 KiB (7%)
Source stream size





: 95.5 KiB (8%)
Title












: Core Media Audio
Encoded date








: UTC 2015-03-29 20:07:10
Tagged date









: UTC 2015-03-29 20:07:10


Note: I just uploaded this torrent for those who are not able to watch it on snapchat. Please do it, if you can!