Star Trek Into Darkness (2013) 3D HSBS Dual Audio Español


Size : 4.2 GiB (4504817059 Bytes)

SIPNOSIS
Cuando a la tripulación de la nave Enterprise le ordenan que regrese a casa, en la Tierra se enfrentan a una terrorífica fuerza que, aparentemente desde dentro, ha perpetrado un ataque a la cúpula de la Federación y todo lo que ésta representa, sumiendo a la flota en una profunda crisis. Para intentar solucionar el problema, y con un asunto personal que resolver, el capitán Kirk encabeza una incursión a un planeta en guerra para capturar a un hombre que es un arma de destrucción masiva. A medida que nuestros héroes se van sumergiendo en una épica partida de ajedrez a vida o muerte, la lealtad se verá puesta a prueba, las amistades se romperán, y habrá que hacer ciertos sacrificios por la única familia que le queda a Kirk: su tripulación.


Format : Matroska
Format version : Version 2
File size : 4.19 GiB
Duration : 2h 12mn
Overall bit rate : 4 546 Kbps
Writing application : HandBrake 0.9.9
Writing library : libmkv 0.6.5


Video
ID : 1
Format : AVC
Format/Info : Advanced Video Codec
Format profile : [email protected]/* */
Format settings, CABAC : Yes
Format settings, ReFrames : 4 frames
Codec ID : V_MPEG4/ISO/AVC
Duration : 2h 12mn
Bit rate : 3 500 Kbps
Width : 1 920 pixels
Height : 800 pixels
Display aspect ratio : 2.40:1
Frame rate mode : Constant
Frame rate : 23.976 fps
Color space : YUV
Chroma subsampling : 4:2:0
Bit depth : 8 bits
Scan type : Progressive
Bits/(Pixel*Frame) : 0.095
Stream size : 3.17 GiB (75%)
Writing library : x264 core 130 r2273 b3065e6
Encoding settings : cabac=1 // deblock=1:0:0 / analyse=0x1:0x111 / me=hex / subme=2 / psy=1 / psy_rd=1.00:0.00 // me_range=16 / chroma_me=1 / trellis=0 / 8x8dct=0 / cqm=0 / deadzone=21,11 / fast_pskip=1 / chroma_qp_offset=0 / threads=6 / lookahead_threads=2 / sliced_threads=0 / nr=0 / decimate=1 / interlaced=0 / bluray_compat=0 / constrained_intra=0 / bframes=3 / b_pyramid=2 / b_adapt=1 / b_bias=0 / direct=1 / weightb=1 / open_gop=0 / weightp=1 / keyint=240 / keyint_min=24 / scenecut=40 / intra_refresh=0 / rc_lookahead=10 / rc=2pass / mbtree=1 / bitrate=3500 / ratetol=1.0 / qcomp=0.60 / qpmin=0 / qpmax=69 / qpstep=4 / cplxblur=20.0 / qblur=0.5 / vbv_maxrate=20000 / vbv_bufsize=25000 / nal_hrd=none / ip_ratio=1.40 / aq=1:1.00
Language : English
Default : Yes
Forced : No
Color primaries : BT.709
Transfer characteristics : BT.709
Matrix coefficients : BT.709


Audio #1
ID : 2
Format : AC-3
Format/Info : Audio Coding 3
Mode extension : CM (complete main)
Format settings, Endianness : Big
Codec ID : A_AC3
Duration : 2h 12mn
Bit rate mode : Constant
Bit rate : 640 Kbps
Channel(s) : 6 channels
Channel positions : Front: L C R, Side: L R, LFE
Sampling rate : 48.0 KHz
Bit depth : 16 bits
Compression mode : Lossy
Stream size : 605 MiB (14%)
Language : Latin
Default : Yes
Forced : No


Audio #2
ID : 3
Format : AC-3
Format/Info : Audio Coding 3
Mode extension : CM (complete main)
Format settings, Endianness : Big
Codec ID : A_AC3
Duration : 2h 12mn
Bit rate mode : Constant
Bit rate : 384 Kbps
Channel(s) : 6 channels
Channel positions : Front: L C R, Side: L R, LFE
Sampling rate : 48.0 KHz
Bit depth : 16 bits
Compression mode : Lossy
Stream size : 363 MiB (8%)
Language : English
Default : No
Forced : No


Text #1
ID : 4
Format : PGS
Codec ID : S_HDMV/PGS
Codec ID/Info : The same subtitle format used on BDs/HD-DVDs
Language : Latin
Default : No
Forced : No


Text #2
ID : 5
Format : VobSub
Codec ID : S_VOBSUB
Codec ID/Info : The same subtitle format used on DVDs
Language : Latin
Default : No
Forced : No



Menu
00:00:00.000 : Chapter 1
00:10:20.370 : Chapter 2
00:19:21.494 : Chapter 3
00:30:03.969 : Chapter 4
00:40:09.115 : Chapter 5
00:46:05.262 : Chapter 6
00:56:38.228 : Chapter 7
01:06:35.783 : Chapter 8
01:12:55.663 : Chapter 9
01:22:45.752 : Chapter 10
01:30:54.741 : Chapter 11
01:38:36.369 : Chapter 12
01:47:09.548 : Chapter 13
01:54:17.142 : Chapter 14
01:59:20.653 : Chapter 15
02:03:18.308 : Chapter 16