Star Trek Into Darkness (Handheld).m4v


Size : 1.57 GiB (1685098818 Bytes)

General
Complete name : Star Trek Into Darkness (Handheld).m4v
Format : MPEG-4
Format profile : Base Media / Version 2
Codec ID : mp42
File size : 1.57 GiB
Duration : 2h 12mn
Overall bit rate mode : Variable
Overall bit rate : 1 701 Kbps
Movie name : Star Trek Into Darkness
Performer : J.J. Abrams
Composer : Michael Giacchino
Executive producer : Jeffrey Chernov, David Ellison, Dana Goldberg, Paul Schwake
Genre : Action, Adventure, Science Fiction
ContentType : Short Film
Description : When the crew of the Enterprise is called back home, they find an unstoppable force of terror from within their own organization has detonated the fleet and everything it stands for, leaving our world in a state of crisis.
With a personal score to settle, Captain Kirk leads a manhunt to a war-zone world to capture a one man weapon of mass destruction. As our heroes are propelled into an epic chess game of life and death, love will be challenged, friendships will be torn apart, and sacrifices must be made for the only family Kirk has left: his crew.
Recorded date : 2013-05-16
Writing application : HandBrake 6469svn 2014102701
Cover : Yes
Rating : None
LongDescription : When the crew of the Enterprise is called back home, they find an unstoppable force of terror from within their own organization has detonated the fleet and everything it stands for, leaving our world in a state of crisis.
With a personal score to settle, Captain Kirk leads a manhunt to a war-zone world to capture a one man weapon of mass destruction. As our heroes are propelled into an epic chess game of life and death, love will be challenged, friendships will be torn apart, and sacrifices must be made for the only family Kirk has left: his crew.
ContentRating : mpaa|PG-13|300|


Video
ID : 1
Format : AVC
Format/Info : Advanced Video Codec
Format profile : [email protected]/* */
Format settings, CABAC : Yes
Format settings, ReFrames : 4 frames
Codec ID : avc1
Codec ID/Info : Advanced Video Coding
Duration : 2h 12mn
Bit rate : 1 528 Kbps
Width : 960 pixels
Height : 400 pixels
Display aspect ratio : 2.40:1
Original display aspect ratio : 2.40:1
Frame rate mode : Variable
Frame rate : 23.976 fps
Minimum frame rate : 21.516 fps
Maximum frame rate : 23.981 fps
Color space : YUV
Chroma subsampling : 4:2:0
Bit depth : 8 bits
Scan type : Progressive
Bits/(Pixel*Frame) : 0.166
Stream size : 1.41 GiB (90%)
Writing library : x264 core 142 r2479 dd79a61
Encoding settings : cabac=1 / ref=4 / deblock=1:0:0 / analyse=0x3:0x133 / me=umh / subme=10 / psy=1 / psy_rd=1.00:0.15 / mixed_ref=1 / me_range=32 / chroma_me=1 / trellis=2 / 8x8dct=1 / cqm=0 / deadzone=21,11 / fast_pskip=1 / chroma_qp_offset=-3 / threads=12 / lookahead_threads=1 / sliced_threads=0 / nr=0 / decimate=1 / interlaced=0 / bluray_compat=0 / constrained_intra=0 / bframes=4 / b_pyramid=2 / b_adapt=2 / b_bias=0 / direct=3 / weightb=1 / open_gop=0 / weightp=2 / keyint=240 / keyint_min=24 / scenecut=40 / intra_refresh=0 / rc_lookahead=60 / rc=crf / mbtree=1 / crf=20.0 / qcomp=0.60 / qpmin=0 / qpmax=69 / qpstep=4 / vbv_maxrate=17500 / vbv_bufsize=17500 / crf_max=0.0 / nal_hrd=none / filler=0 / ip_ratio=1.40 / aq=1:1.00
Color primaries : BT.709
Transfer characteristics : BT.709
Matrix coefficients : BT.709

Audio
ID : 2
Format : AAC
Format/Info : Advanced Audio Codec
Format profile : LC
Codec ID : 40
Duration : 2h 12mn
Bit rate mode : Variable
Bit rate : 165 Kbps
Maximum bit rate : 267 Kbps
Channel(s) : 2 channels
Channel positions : Front: L R (Dolby Pro Logic II)
Sampling rate : 48.0 KHz
Compression mode : Lossy
Stream size : 155 MiB (10%)
Title : Stereo
Language : English


Menu
ID : 3
Codec ID : text
Duration : 2h 12mn
Language : English
00:00:00.000 : Chapter 1
00:10:20.458 : Chapter 2
00:19:21.582 : Chapter 3
00:30:04.057 : Chapter 4
00:40:09.203 : Chapter 5
00:46:05.351 : Chapter 6
00:56:38.316 : Chapter 7
01:06:35.872 : Chapter 8
01:12:55.751 : Chapter 9
01:22:45.841 : Chapter 10
01:30:54.829 : Chapter 11
01:38:36.457 : Chapter 12
01:47:09.636 : Chapter 13
01:54:17.230 : Chapter 14
01:59:20.742 : Chapter 15
02:03:18.396 : Chapter 16
Bit rate mode : VBR