Steve Byrne The Byrne Identity (PSP, iPod, Zune)


Size : 187.79 MiB (196915201 Bytes)

More stand-up comedy! Sorry guys, but this is censored but its still funny.

Steve Byrne The Byrne Identity

Encoded for PSP, iPod, and Zune.

Enjoy and please help me seed! (^_^)

Video Specs:
Format












: MPEG-4
Codec ID











: M4V
File size











: 188 MiB
Duration











: 41mn 29s
Overall bit rate







: 633 Kbps
Movie name










: Steve Byrne The Byrne Identity
Encoded date









: 2010
Writing application






: Lavf52.33.0

Video
ID














: 1
Format












: AVC
Format/Info










: Advanced Video Codec
Format profile








: [email protected]/* */
Format settings, CABAC




: No
Format settings, ReFrames



: 1 frame
Codec ID











: avc1
Codec ID/Info









: Advanced Video Coding
Duration











: 41mn 29s
Bit rate mode









: Variable
Bit rate











: 500 Kbps
Width













: 320 pixels
Height












: 240 pixels
Display aspect ratio





: 4:3
Frame rate mode








: Constant
Frame rate










: 29.970 fps
Color space










: YUV
Chroma subsampling






: 4:2:0
Bit depth











: 8 bits
Scan type











: Progressive
Bits/(Pixel*Frame)






: 0.217
Stream size










: 148 MiB (79%)

Audio
ID














: 2
Format












: AAC
Format/Info










: Advanced Audio Codec
Format version








: Version 4
Format profile








: LC
Format settings, SBR





: No
Codec ID











: 40
Duration











: 41mn 29s
Bit rate mode









: Variable
Bit rate











: 128 Kbps
Channel(s)










: 2 channels
Channel positions







: Front: L R
Sampling rate









: 48.0 KHz
Stream size










: 38.0 MiB (20%)


If you need/want to get in touch with me (request, reseed, etc.). Send an email to [email protected]/* */

Please seed when finished downloading and leave a comment, request, etc. And above all ENJOY!

If anyone would like any tv show, movie, music video, or yes, even XXX, for PSP or any other handheld device for that matter. I would be more than happy to do it for you. Just leave a comment or send an email to [email protected]/* */