Tarzán.2014.3D.A-A.1080p.Audio.Latino.AlexHD


Size : 2.74 GiB (2943009167 Bytes)

General	
Complete name









: Tarzán.2014.3D.A-A.1080p.Audio.Latino.AlexHD.mp4
Format












: MPEG-4
Format profile








: Base Media / Version 2
Codec ID











: mp42
File size











: 2.74 GiB
Duration











: 1h 34mn
Overall bit rate







: 4 158 Kbps
Movie name










: Untitled

Video
ID














: 1
Format












: AVC
Format/Info










: Advanced Video Codec
Format profile








: [email protected]/* */
Format settings, CABAC




: No
Format settings, ReFrames



: 3 frames
Codec ID











: avc1
Codec ID/Info









: Advanced Video Coding
Duration











: 1h 34mn
Bit rate mode









: Variable
Bit rate











: 4 102 Kbps
Width













: 1 920 pixels
Height












: 1 080 pixels
Display aspect ratio





: 16:9
Frame rate mode








: Variable
Frame rate










: 24.000 fps
Minimum frame rate






: 24.000 fps
Maximum frame rate






: 24.024 fps
Color space










: YUV
Chroma subsampling






: 4:2:0
Bit depth











: 8 bits
Scan type











: Progressive
Bits/(Pixel*Frame)






: 0.082
Stream size










: 2.70 GiB (99%)

Audio
ID














: 2
Format












: AAC
Format/Info










: Advanced Audio Codec
Format profile








: LC
Codec ID











: 40
Duration











: 1h 34mn
Bit rate mode









: Variable
Bit rate











: 53.7 Kbps
Maximum bit rate







: 242 Kbps
Channel(s)










: 2 channels
Channel positions







: Front: L R
Sampling rate









: 44.1 KHz
Compression mode







: Lossy
Stream size










: 36.2 MiB (1%)
Language











: Spanish