Taxi Driver (1976) Remastered Version


Size : 686.61 MiB (719962758 Bytes)

Director: Martin Scorsese
On every street in every city, there's a nobody who dreams of being a somebody. Vietnam vet Travis Bickle is 26, a loner in the mean streets of New York City, slipping slowly into isolation and violent misanthropy. In solving his insomnia by driving a yellow cab on the night shift, he grows increasingly disgusted by the low-lifes that hang out at night: "Someday a real rain will come and wash all the scum off the streets." His touching attempts to woo Betsy, a Senator's campaign worker, turn sour when he takes her to a porn movie on their first date. He even fails in his attempt to persuade child prostitute Iris to desert her pimp and return to her parents and school. Driven to the edge by powerlessness, he buys four handguns and sets out to assassinate the Senator, heading for the infamy of a 'lone crazed gunman'...
Written by Tim Jones [email protected]/* */}
New York City cab driver Travis Bickle constantly, almost obsessively, reflects on the ugly corruption of life around him, and becomes increasingly disturbed over his own loneliness and alienation. In nearly every phase of his life, Bickle remains a complete outsider, failing to make emotional contact with anyone. Unable to sleep night after night, Travis haunts the local pornography emporiums to find diversion, and begins desperately thinking about an escape from his depressing existence. Written by filmfactsman
File Confirmation: Complete name









: C:Documents and SettingsOwnerDesktopconvTaxi Driver_DVDrip_big_dad_e.mp4 Format












: MPEG-4 Format profile








: Base Media Codec ID











: isom File size











: 687 MiB Duration











: 1h 53mn Overall bit rate







: 844 Kbps Movie name










: Taxi Driver_DVDrip_big_dad_e Encoded date









: UTC 2009-08-01 05:01:03 Tagged date










: UTC 2009-08-01 05:01:03 Comment












: QuickTime 6.0 or greater
Video ID














: 1 Format












: MPEG-4 Visual Format profile








: [email protected]/* */ Format settings, BVOP





: No Format settings, QPel





: No Format settings, GMC





: No warppoints Format settings, Matrix




: Default (H.263) Codec ID











: 20 Duration











: 1h 53mn Bit rate mode









: Constant Bit rate











: 727 Kbps Nominal bit rate







: 768 Kbps Width













: 320 pixels Height












: 192 pixels Display aspect ratio





: 1.667 Frame rate mode








: Constant Frame rate










: 29.970 fps Resolution










: 24 bits Colorimetry










: 4:2:0 Scan type











: Progressive Bits/(Pixel*Frame)






: 0.395 Stream size










: 592 MiB (86%) Writing library








: XviD 1.1.0 (UTC 2005-11-22) Encoded date









: UTC 2009-08-01 05:01:03 Tagged date










: UTC 2009-08-01 05:01:03
Audio ID














: 2 Format












: AAC Format/Info










: Advanced Audio Codec Format version








: Version 4 Format profile








: LC Format settings, SBR





: No Codec ID











: 40 Duration











: 1h 53mn Bit rate mode









: Constant Bit rate











: 112 Kbps Channel(s)










: 2 channels Channel positions







: L R Sampling rate









: 48.0 KHz Resolution










: 16 bits Stream size










: 90.9 MiB (13%) Encoded date









: UTC 2009-08-01 05:01:03 Tagged date










: UTC 2009-08-01 05:01:03
File Scan: Malwarebytes' Anti-Malware 1.39 Database version: 2528 Windows 5.1.2600 Service Pack 3
8/1/2009 6:20:11 AM mbam-log-2009-08-01 (06-20-11).txt
Scan type: Quick Scan Objects scanned: 1 Time elapsed: 5 second(s)
Memory Processes Infected: 0 Memory Modules Infected: 0 Registry Keys Infected: 0 Registry Values Infected: 0 Registry Data Items Infected: 0 Folders Infected: 0 Files Infected: 0
Memory Processes Infected: (No malicious items detected)
Memory Modules Infected: (No malicious items detected)
Registry Keys Infected: (No malicious items detected)
Registry Values Infected: (No malicious items detected)
Registry Data Items Infected: (No malicious items detected)
Folders Infected: (No malicious items detected)
Files Infected: (No malicious items detected)


When using TPB please read these important notes:



01- Anti-malware apps may warn about keygens, patches, cracks, etc., because of


their capabilities, (generating codes, etc.). Sometimes they're added to


the virus/spyware database and will be detected as malware. If you don't trust

the keygens, patches, cracks, etc., don't use them.


02- Before running .exe-files, keygens, patches, cracks, etc., always check first


if they can be unpacked. Often some third party added a virus to the


original file, repacked it and uploaded it again.
03- Letting anti-malware apps send scan results to their companies can cause

keygens, patches, cracks, etc., to be added to their virus-database.
04- Firewalls which are set to automatically determine connections will allow


apps & MALWARE!. Avoid this by manually configuring your firewall.
05- Usually (new) torrents with many downloads and seeders in a brief period

suspicious! Torrents with the Skull & Crossbones icon are trusted.
06- Some people use multiple accounts and post fake comments


and/or files trying to spread confusion. They seldom seriously

comment or have any torrents, or just a few to look passable.
07- Clicking on unknown links can cause malware to be installed on your machine.

08- In general often there are more fake and negative comments than reliable and

positive comments.
09- In some countries uploading/downloading copyright protected material is


forbidden, but showing some appreciation to reliable up-loaders is not.
10- Posting fake and negative comments or fake/infected uploads on TPB can result

in getting banned from TPB!

For reporting bad or suspicious torrents: http://forum.suprbay.org/forumdisplay.php?fid=29
For more of my torrents: https://thepiratebay.se/user/big_dad_e/
(Secured)
All torrents scanned with: Norton Anti-virus Malwarebytes' Anti-malware
ALWAYS SEED!

Quicktime for iPod