Taylor Swift – Out of The Woods (2015 Pop)


Size : 71.05 MiB (74499510 Bytes)

TAYLOR SWIFT - OUT OF THE WOODS

http://ultraimg.com/images/woods.png
http://ultraimg.com/images/woods01.png
http://ultraimg.com/images/woods02.png


General
Taylor Swift - Out of The Woods
Format
















: MPEG-4
Format profile












: Base Media
Codec ID















: isom
File size















: 71.0 MiB
Duration















: 4mn 16s
Overall bit rate











: 2 322 Kbps
MusicVid name













: Out Of The Woods
Album

















: 1989
Performer















: Taylor Swift
Genre

















: Pop
ContentType














: Music Video
Recorded date













: 2015
Writing application










: Lavf56.32.100 / MeRaDil
Cover

















: Yes
Artist url














: http://taylorswift.com/
Release time













: USA . december 31 . 2015
http://ultraimg.com/images/woods-taylor.png

Video
ID


















: 1
Format
















: AVC
Format/Info














: Advanced Video Codec
Format profile












: [email protected]/* */
Format settings, CABAC








: Yes
Format settings, ReFrames







: 3 frames
Codec ID















: avc1
Codec ID/Info













: Advanced Video Coding
Duration















: 4mn 16s
Bit rate















: 2 045 Kbps
Width

















: 1 920 pixels
Height
















: 1 080 pixels
Display aspect ratio









: 16:9
Frame rate mode












: Variable
Frame rate














: 23.976 fps
Minimum frame rate










: 23.974 fps
Maximum frame rate










: 23.981 fps
Color space














: YUV
Chroma subsampling










: 4:2:0
Bit depth















: 8 bits
Scan type















: Progressive
Bits/(Pixel*Frame)










: 0.041
Stream size














: 62.5 MiB (88%)

Audio
ID


















: 2
Format
















: AAC
Format/Info














: Advanced Audio Codec
Format profile












: LC
Codec ID















: 40
Duration















: 4mn 16s
Bit rate mode













: Constant
Bit rate















: 256 Kbps
Channel(s)














: 2 channels
Channel positions











: Front: L R
Sampling rate













: 44.1 KHz
Compression mode











: Lossy
Stream size














: 7.83 MiB (11%)