Tears of the sun (PSP + Ipod touch + Zune)


Size : 455.61 MiB (477740436 Bytes)

Tears of the sun  http://www.imdb.com/title/tt0314353/
Source
:
Tears of the Sun 2003 720p BluRay x264 CtrlHD
Info

:
ID














: 1 Format












: AVC Format/Info










: Advanced Video Codec Format profile








: [email protected]/* */ Format settings, CABAC




: No Format settings, ReFrames



: 3 frames Codec ID











: avc1 Codec ID/Info









: Advanced Video Coding Duration











: 2h 0mn Bit rate mode









: Variable Bit rate











: 395 Kbps Width













: 480 pixels Height












: 208 pixels Display aspect ratio





: 2.35:1 Frame rate mode








: Variable Frame rate










: 23.976 fps Minimum frame rate






: 23.810 fps Maximum frame rate






: 24.390 fps Color space










: YUV Chroma subsampling






: 4:2:0 Bit depth











: 8 bits Scan type











: Progressive Bits/(Pixel*Frame)






: 0.165 Stream size










: 342 MiB (75%) Writing library








: x264 core 79
ID














: 2 Format












: AAC Format/Info










: Advanced Audio Codec Format version








: Version 4 Format profile








: LC Format settings, SBR





: No Codec ID











: 40 Duration











: 2h 0mn Bit rate mode









: Variable Bit rate











: 128 Kbps Maximum bit rate







: 165 Kbps Channel(s)










: 2 channels Channel positions







: Front: L R Sampling rate









: 48.0 KHz Stream size










: 111 MiB (24%) Language











: English
Screens :
http://img576.imageshack.us/img576/981/tearsofthesunpspipodtou.jpg
PLEASE LET THE TORRENT SEED AND SHARE IT WITH ALL YOU KNOW!
Let me know what I can do to be your trusted source of Handheld videos.
-OOO