Teenage.Mutant.Ninja.Turtles.2016.720p.Hinidi.Eng.Bluray-Hon3y


Size : 3.19 GiB (3429912179 Bytes)

Teenage.Mutant.Ninja.Turtles-Out.of.the.Shadows.2016.720p.BluRay.[Hindi(Org)DD5.1][Eng5.1]-Hon3y


Format
















: Matroska
Format version












: Version 4 / Version 2
File size















: 3.19 GiB
Duration















: 1h 52mn
Overall bit rate











: 4 079 Kbps

Video
Format
















: AVC
Format/Info














: Advanced Video Codec
Format profile












: [email protected]/* */
Duration















: 1h 52mn
Bit rate















: 3 378 Kbps
Width

















: 1 280 pixels
Height
















: 536 pixels
Display aspect ratio









: 2.40:1
Frame rate mode












: Constant
Frame rate














: 23.976 fps
Bit depth















: 8 bits
Scan type















: Progressive
Stream size














: 2.60 GiB (82%)
Writing library












: x264 core 148 r2638 7599210

Audio #1
Format
















: AC-3
Duration















: 1h 52mn
Bit rate mode













: Constant
Bit rate















: 448 Kbps
Channel(s)














: 6 channels
Channel positions











: Front: L C R, Side: L R, LFE
Sampling rate













: 48.0 KHz
Bit depth















: 16 bits
Compression mode











: Lossy
Stream size














: 359 MiB (11%)
Language















: Hindi

Audio #2
Format
















: AC-3
Duration















: 1h 52mn
Bit rate mode













: Constant
Bit rate















: 224 Kbps
Channel(s)














: 6 channels
Channel positions











: Front: L C R, Side: L R, LFE
Sampling rate













: 48.0 KHz
Bit depth















: 16 bits
Compression mode











: Lossy
Stream size














: 180 MiB (5%)
Language















: English

Subtitle: English


Screens:

https://ititli.com/Xpp https://ititli.com/XpD https://ititli.com/Xpa https://ititli.com/Xpb https://ititli.com/Xpz https://ititli.com/XpI https://ititli.com/XpO https://ititli.com/XD9 https://ititli.com/XDX