The Art of Flight (2011) 3D OU 2160p


Size : 6.59 GiB (7071562423 Bytes)

 http://www.imdb.com/title/tt1646967/

Video
Format
















: HEVC
Format/Info














: High Efficiency Video Coding
Format profile












: [email protected]/* [email protected]
MultiView_Count












: 2
MultiView_Layout











: Top-Bottom (left eye first)
Codec ID















: V_MPEGH/ISO/HEVC
Duration















: 1h 20mn
Bit rate















: 11.2 Mbps
Width

















: 1 920 pixels
Height
















: 2 160 pixels
Display aspect ratio









: 16:9
Original display aspect ratio





: 0.889
Frame rate mode












: Constant
Frame rate














: 23.976 (24000/1001) fps
Color space














: YUV
Chroma subsampling










: 4:2:0
Bit depth















: 8 bits
Stream size














: 6.32 GiB (96%)

Audio
ID


















: 2
Format
















: AAC
Format/Info














: Advanced Audio Codec
Format profile












: LC
Codec ID















: A_AAC
Duration















: 1h 20mn
Bit rate















: 469 Kbps
Channel(s)














: 6 channels
Channel positions











: Front: L C R, Side: L R, LFE
Sampling rate













: 48.0 KHz
Frame rate














: 46.875 fps (1024 spf)
Compression mode











: Lossy
Delay relative to video








: 9ms
Stream size














: 271 MiB (4%)
Language















: English