The Beatles – Anthology Ep. 1 – (documentary) – 1995 – [=Faith=]


Size : 668.7 MiB (701182786 Bytes)

The Beatles - Anthology

Episode 1 of 8


The Beatles Anthology is the name of a documentary TV series, a three-volume set of double albums, and a book focusing on the history of the Beatles. Paul McCartney, George Harrison and Ringo Starr all participated in the making and approval of the works, which are sometimes referred to collectively as the Anthology project.

The Beatles Anthology documentary series was first broadcast in November 1995, with expanded versions released on VHS and Laserdisc in 1996 and on DVD in 2003. The documentary used interviews with the Beatles and their associates to narrate the history of the band as seen through archival footage and performances. The initial volume of the album set was released in conjunction with the documentary in November 1995, with the subsequent two volumes released in 1996. The albums included unreleased performances and outtakes presented in roughly chronological order, along with two new songs based on demo tapes recorded by John Lennon after the group broke up. The book, released in 2000, paralleled the documentary in presenting the group's history through quotes from interviews.


General:

Complete name : The Beatles Anthology I.mp4
Format : MPEG-4
File size : 669 MB
Duration : 1hr 18min
Overall bit rate mode : Variable
Overall bit rate : 1185 Kbps
Movie name : The Beatles Anthology I
Part/Position : 1
Part/Total : 8
Performer : The Beatles
Recorded date : 1995
IMDB Rating : 9.4


Video:

ID : 1
Format : AVC
Format/Info : Advanced Video Codec
Format profile : [email protected]/* */
Format settings, CABAC : No
Format settings, ReFrames : 1 frame
Codec ID : avc1
Codec ID/Info : Advanced Video Coding
Duration : 1h 18mn
Bit rate : 983 Kbps
Maximum bit rate : 4 669 Kbps
Width : 512 pixels
Height : 384 pixels
Display aspect ratio : 4:3
Frame rate mode : Constant
Frame rate : 29.970 fps
Color space : YUV
Chroma subsampling : 4:2:0
Bit depth : 8 bits
Scan type : Progressive
Bits/(Pixel*Frame) : 0.167
Stream size : 560 MiB (84%)
Writing library : x264 core 116 r2019 9cc407d
Encoding settings : See info file.
Encoded date : UTC 2015-02-26 20:42:22
Tagged date : UTC 2015-02-26 20:42:30


Audio:

ID : 2
Format : AAC
Format/Info : Advanced Audio Codec
Format profile : LC
Codec ID : 40
Duration : 1h 18mn
Bit rate mode : Variable
Bit rate : 192 Kbps
Maximum bit rate : 266 Kbps
Channels : 2 channels
Channel positions : Front: L R
Sampling rate : 48.0 KHz
Compression mode : Lossy
Stream size : 107 MiB (16%)
Encoded date : UTC 2015-02-26 20:42:28
Tagged date : UTC 2015-02-26 20:42:30