The Bounty Hunter PROPER (PSP + Ipod touch + Zune)


Size : 420.97 MiB (441423118 Bytes)

The Bounty Hunter  http://www.imdb.com/title/tt1038919/
Source
:
The.Bounty.Hunter.2010.1080p.BluRay.x264-METiS
Info

:
ID














: 1 Format












: AVC Format/Info










: Advanced Video Codec Format profile








: [email protected]/* */ Format settings, CABAC




: No Format settings, ReFrames



: 3 frames Codec ID











: avc1 Codec ID/Info









: Advanced Video Coding Duration











: 1h 50mn Bit rate mode









: Variable Bit rate











: 400 Kbps Width













: 480 pixels Height












: 208 pixels Display aspect ratio





: 2.35:1 Frame rate mode








: Variable Frame rate










: 23.976 fps Minimum frame rate






: 23.810 fps Maximum frame rate






: 24.390 fps Color space










: YUV Chroma subsampling






: 4:2:0 Bit depth











: 8 bits Scan type











: Progressive Bits/(Pixel*Frame)






: 0.167 Stream size










: 316 MiB (75%) Writing library








: x264 core 79
ID














: 2 Format












: AAC Format/Info










: Advanced Audio Codec Format version








: Version 4 Format profile








: LC Format settings, SBR





: No Codec ID











: 40 Duration











: 1h 50mn Bit rate mode









: Variable Bit rate











: 128 Kbps Maximum bit rate







: 207 Kbps Channel(s)










: 2 channels Channel positions







: Front: L R Sampling rate









: 48.0 KHz Stream size










: 101 MiB (24%) Language











: English
Screens :
http://img42.imageshack.us/img42/3505/vlcsnap00001jb.png http://img63.imageshack.us/img63/9891/vlcsnap00002z.png http://img36.imageshack.us/img36/8400/vlcsnap00003ge.png http://img84.imageshack.us/img84/4271/vlcsnap00004a.png http://img820.imageshack.us/img820/883/vlcsnap00005x.png http://img29.imageshack.us/img29/7245/vlcsnap00006s.png http://img139.imageshack.us/img139/335/vlcsnap00007t.png http://img193.imageshack.us/img193/3311/vlcsnap00008y.png
PLEASE LET THE TORRENT SEED AND SHARE IT WITH ALL YOU KNOW!
Let me know what I can do to be your trusted source of Handheld videos.
http://thepiratebay.se/user/on.off.on/ -OOO