The.Choice.is.Ours.(2016).Official.Full.Version.1080p.Web-DL.AAC

Magnet Download Torrent Download

Size : 980.72 MiB (1028357114 Bytes)

[center][b][Title]The.Choice.is.Ours.(2016).Official.Full.Version.1080p.Web-DL.AAC.x265-NEBO666[/Title]

[img]http://lookpic.com/O/i2/764/nQJvC8AM.jpeg[/img][/center][/b]


[plot]

The series shows an optimistic vision of the world if we apply science & technology for the benefit of all people and the environment.

[info]
http://www.imdb.com/title/tt3621952/

[b][color=green]General Information[/color][/b]

File size















: 963 MiB
Duration















: 1 h 37 min
Overall bit rate











: 1 384 kb/s

[b][color=green]Video info[/color][/b]
Format
















: HEVC
Format/Info














: High Efficiency Video Coding
Format profile












: @[email protected]/* */
Codec ID















: V_MPEGH/ISO/HEVC
Duration















: 1 h 37 min
Bit rate















: 1 256 kb/s
Width

















: 1 920 pixels
Height
















: 1 080 pixels
Display aspect ratio









: 16:9
Frame rate mode












: Constant
Frame rate














: 29.970 (30000/1001) FPS
Color space














: YUV
Chroma subsampling










: 4:2:0
Bit depth















: 12 bits
Bits/(Pixel*Frame)










: 0.020
Stream size














: 874 MiB (91%)

[b][color=green]Audio info[/color][/b]

Format/Info














: Advanced Audio Codec
Format profile












: LC
Codec ID















: A_AAC
Duration















: 1 h 37 min
Bit rate















: 126 kb/s
Channel(s)














: 2 channels
Channel positions











: Front: L R
Sampling rate













: 44.1 kHz
Frame rate














: 43.066 FPS (1024 spf)
Compression mode











: Lossy
Stream size














: 87.4 MiB (9%)
Language















: English
[screens]
[img]http://lookpic.com/O/i2/558/oD4y5PfF.png[/img]
[img]http://lookpic.com/O/i2/541/Sw7UN1sn.png[/img]
[img]http://lookpic.com/O/i2/707/c8RHQ6PW.png[/img]
[img]http://lookpic.com/O/i2/420/JE542cF3.png[/img]
[img]http://lookpic.com/O/i2/766/2fNdSjbS.png[/img]