The.Darkness.Rage.and.the.Fury.3D.2014.1080p.BluRay.x264-UNVEiL

Magnet Download Torrent Download

Size : 6.56 GiB (7039564886 Bytes)

Video
ID


















: 1
Format
















: AVC
Format/Info














: Advanced Video Codec
Format profile












: [email protected]/* */
Format settings, CABAC








: Yes
Format settings, ReFrames







: 4 frames
Codec ID















: V_MPEG4/ISO/AVC
Duration















: 1h 23mn
Bit rate















: 10.2 Mbps
Width

















: 1 920 pixels
Height
















: 1 080 pixels
Display aspect ratio









: 16:9
Frame rate mode












: Constant
Frame rate














: 23.976 fps
Color space














: YUV
Chroma subsampling










: 4:2:0
Bit depth















: 8 bits
Scan type















: Progressive
Bits/(Pixel*Frame)










: 0.204
Stream size














: 5.76 GiB (88%)
Writing library












: x264 core 146 r2538 121396c
Encoding settings











: cabac=1 / ref=4 / deblock=1:-3:-3 / analyse=0x3:0x133 / me=umh / subme=8 / psy=1 / psy_rd=1.00:0.15 / mixed_ref=1 / me_range=16 / chroma_me=1 / trellis=1 / 8x8dct=1 / cqm=0 / deadzone=21,11 / fast_pskip=0 / chroma_qp_offset=-3 / threads=12 / lookahead_threads=2 / sliced_threads=0 / nr=0 / decimate=1 / interlaced=0 / bluray_compat=0 / constrained_intra=0 / bframes=3 / b_pyramid=2 / b_adapt=2 / b_bias=0 / direct=3 / weightb=1 / open_gop=0 / weightp=2 / keyint=240 / keyint_min=24 / scenecut=40 / intra_refresh=0 / rc_lookahead=50 / rc=2pass / mbtree=1 / bitrate=10156 / ratetol=1.0 / qcomp=0.60 / qpmin=0 / qpmax=69 / qpstep=4 / cplxblur=20.0 / qblur=0.5 / ip_ratio=1.40 / aq=1:1.00
Language















: English
Default
















: Yes
Forced
















: No

Audio
ID


















: 2
Format
















: DTS
Format/Info














: Digital Theater Systems
Mode

















: 16
Format settings, Endianness






: Big
Codec ID















: A_DTS
Duration















: 1h 23mn
Bit rate mode













: Constant
Bit rate















: 1 152 Kbps
Channel(s)














: 6 channels
Channel positions











: Front: L C R, Side: L R, LFE
Sampling rate













: 48.0 KHz
Bit depth















: 24 bits
Compression mode











: Lossy
Stream size














: 684 MiB (10%)
Default
















: Yes
Forced
















: No

Menu
00:00:00.000













: en:00:00:00.000
00:09:59.974













: en:00:09:59.974
00:19:59.990













: en:00:19:59.990
00:29:59.965













: en:00:29:59.965
00:39:59.981













: en:00:39:59.981
00:49:59.997













: en:00:49:59.997
00:59:59.971













: en:00:59:59.971
01:09:59.987













: en:01:09:59.987
01:19:59.962













: en:01:19:59.962