The Do Over 2016 720p WEBRip x264


Size : 1.49 GiB (1602822762 Bytes)

Screens:  http://extraimage.net/image/a0GI

Video
ID


















: 1
Format
















: AVC
Format/Info














: Advanced Video Codec
Format profile












: [email protected]/* */
Format settings, CABAC








: Yes
Format settings, ReFrames







: 1 frame
Format settings, GOP









: M=3, N=24
Muxing mode














: Container [email protected]/* */
Codec ID















: avc1
Codec ID/Info













: Advanced Video Coding
Duration















: 1h 41mn
Bit rate mode













: Variable
Bit rate















: 1 970 Kbps
Maximum bit rate











: 3 000 Kbps
Width

















: 1 280 pixels
Height
















: 720 pixels
Display aspect ratio









: 16:9
Frame rate mode












: Constant
Frame rate














: 23.976 (24000/1001) fps
Color space














: YUV
Chroma subsampling










: 4:2:0
Bit depth















: 8 bits
Scan type















: Progressive
Bits/(Pixel*Frame)










: 0.089
Stream size














: 1.40 GiB (94%)
Language















: English

Audio
ID


















: 2
Format
















: AAC
Format/Info














: Advanced Audio Codec
Format profile












: LC
Codec ID















: 40
Duration















: 1h 41mn
Bit rate mode













: Constant
Bit rate















: 128 Kbps
Channel(s)














: 2 channels
Channel positions











: Front: L R
Sampling rate













: 48.0 KHz
Frame rate














: 46.875 fps (1024 spf)
Compression mode











: Lossy
Stream size














: 93.0 MiB (6%)
Title

















: Stereo
Language















: English
Default
















: Yes
Alternate group












: 1