The.Final.Countdown.3D.1980.1080p.HSBS.BRRip.x264.Hun.Eng


Size : 7.79 GiB (8360443968 Bytes)

The.Final.Countdown.3D.1980.1080p.HSBS.BRRip.x264.Hun.Eng
http://www.imdb.com/title/tt0080736/

General
Unique ID















: 183775992719062894537256270255540208144 (0x8A41F7FF968732F98E6B9454B57D0210)
Complete name













: F:The.Final.Countdown.3D.1980.1080p.HSBS.BRRip.x264.Hun.EngThe Final Countdown 3D (1980) 1080p.mkv
Format
















: Matroska
Format version












: Version 4 / Version 2
File size















: 7.79 GiB
Duration















: 1h 42mn
Overall bit rate











: 10.9 Mbps
Encoded date













: UTC 2015-05-10 21:23:18
Writing application










: mkvmerge v7.8.0 ('River Man') 64bit built on Mar 27 2015 16:31:37
Writing library












: libebml v1.3.1 + libmatroska v1.4.2
DURATION















: 01:42:34.134000000
NUMBER_OF_FRAMES











: 576950
NUMBER_OF_BYTES












: 590796916
_STATISTICS_WRITING_APP








: mkvmerge v7.8.0 ('River Man') 64bit built on Mar 27 2015 16:31:37
_STATISTICS_WRITING_DATE_UTC





: 2015-05-10 21:23:18
_STATISTICS_TAGS











: BPS DURATION NUMBER_OF_FRAMES NUMBER_OF_BYTES

Video
ID


















: 1
Format
















: AVC
Format/Info














: Advanced Video Codec
Format profile












: [email protected]/* */
MultiView_Count












: 2
MultiView_Layout











: Side by Side (left eye first)
Format settings, CABAC








: Yes
Format settings, ReFrames







: 5 frames
Codec ID















: V_MPEG4/ISO/AVC
Duration















: 1h 42mn
Bit rate















: 9 905 Kbps
Width

















: 1 920 pixels
Height
















: 816 pixels
Display aspect ratio









: 2.35:1
Frame rate mode












: Constant
Frame rate














: 23.976 fps
Color space














: YUV
Chroma subsampling










: 4:2:0
Bit depth















: 8 bits
Scan type















: Progressive
Bits/(Pixel*Frame)










: 0.264
Stream size














: 6.94 GiB (89%)
Title

















: The Final Countdown 3D (1980) HSBS 1080p
Writing library












: x264 core 144 r2525 40bb568
Encoding settings











: cabac=1 / ref=5 / deblock=1:-3:-3 / analyse=0x3:0x113 / me=umh / subme=8 / psy=1 / psy_rd=1.00:0.00 / mixed_ref=1 / me_range=16 / chroma_me=1 / trellis=1 / 8x8dct=1 / cqm=0 / deadzone=21,11 / fast_pskip=1 / chroma_qp_offset=-2 / threads=18 / lookahead_threads=3 / sliced_threads=0 / nr=0 / decimate=1 / interlaced=0 / bluray_compat=0 / constrained_intra=0 / bframes=3 / b_pyramid=2 / b_adapt=2 / b_bias=0 / direct=3 / weightb=1 / open_gop=0 / weightp=2 / keyint=240 / keyint_min=24 / scenecut=40 / intra_refresh=0 / rc_lookahead=50 / rc=2pass / mbtree=1 / bitrate=9905 / ratetol=1.0 / qcomp=0.60 / qpmin=0 / qpmax=69 / qpstep=4 / cplxblur=20.0 / qblur=0.5 / frame-packing=3 / ip_ratio=1.40 / aq=1:1.00
Default
















: Yes
Forced
















: No

Audio #1
ID


















: 2
Format
















: AC-3
Format/Info














: Audio Coding 3
Mode extension












: CM (complete main)
Format settings, Endianness






: Big
Codec ID















: A_AC3
Duration















: 1h 42mn
Bit rate mode













: Constant
Bit rate















: 192 Kbps
Channel(s)














: 2 channels
Channel positions











: Front: L R
Sampling rate













: 48.0 KHz
Bit depth















: 16 bits
Compression mode











: Lossy
Delay relative to video








: 16ms
Stream size














: 141 MiB (2%)
Title

















: 2.0
Language















: Hungarian
Default
















: Yes
Forced
















: No

Audio #2
ID


















: 3
Format
















: DTS
Format/Info














: Digital Theater Systems
Mode

















: 16
Format settings, Endianness






: Big
Codec ID















: A_DTS
Duration















: 1h 42mn
Bit rate mode













: Constant
Bit rate















: 768 Kbps
Channel(s)














: 6 channels
Channel positions











: Front: L C R, Side: L R, LFE
Sampling rate













: 48.0 KHz
Bit depth















: 16 bits
Compression mode











: Lossy
Stream size














: 564 MiB (7%)
Title

















: DTS 5.1
Language















: English
Default
















: No
Forced
















: No
http://www.port.hu/a_vegso_visszaszamlalas_the_final_countdown/pls/fi/films.film_page?i_topic_id=2&i_film_id=5187&i_city_id=-1&i_county_id=-1