The Fixer S01 (PSP, iPod, Zune)


Size : 1.22 GiB (1310117070 Bytes)

Source: Various HDTV Releases

Encoded for PSP, iPod, and Zune

Enjoy and please help me seed, so I can release more stuff faster! (^_^)

I love this show, it is just Awesome! It gets good in the first 2 minutes.

As far as I know there has only been 2 seasons. I have all of the first season and all but the last episode of the second season. I have searched and can't find the last episode of the 3nd season. =(

If anyone has all 6 episodes of the 2nd season and they would upload them or just the last episode somewhere and give me the link, I would be very happy and then I could release the 2nd season for PSP, iPod, and Zune.

Show Nfo - Ex-special forces operative and convicted murderer John Mercer is awarded an early release from prison on the condition that he becomes an assassin for the government.

Video Specs:
Format












: MPEG-4
Codec ID











: M4V
File size











: 211 MiB
Duration











: 46mn 34s
Overall bit rate







: 632 Kbps
Movie name










: The Fixer S01E01
Encoded date









: 2010
Writing application






: Lavf52.33.0

Video
ID














: 1
Format












: AVC
Format/Info










: Advanced Video Codec
Format profile








: [email protected]/* */
Format settings, CABAC




: No
Format settings, ReFrames



: 1 frame
Codec ID











: avc1
Codec ID/Info









: Advanced Video Coding
Duration











: 46mn 34s
Bit rate mode









: Variable
Bit rate











: 500 Kbps
Width













: 320 pixels
Height












: 240 pixels
Display aspect ratio





: 4:3
Frame rate mode








: Constant
Frame rate










: 23.976 fps
Color space










: YUV
Chroma subsampling






: 4:2:0
Bit depth











: 8 bits
Scan type











: Progressive
Bits/(Pixel*Frame)






: 0.271
Stream size










: 167 MiB (79%)

Audio
ID














: 2
Format












: AAC
Format/Info










: Advanced Audio Codec
Format version








: Version 4
Format profile








: LC
Format settings, SBR





: No
Codec ID











: 40
Duration











: 46mn 34s
Bit rate mode









: Variable
Bit rate











: 128 Kbps
Channel(s)










: 2 channels
Channel positions







: Front: L R
Sampling rate









: 48.0 KHz
Stream size










: 42.6 MiB (20%)


If you need/want to get in touch with me (request, reseed, etc.). Send an email to [email protected]/* */

Please seed when finished downloading and leave a comment, request, etc. And above all ENJOY!

If anyone would like any tv show, movie, music video, or yes, even XXX, for PSP or any other handheld device for that matter. I would be more than happy to do it for you. Just leave a comment or send an email to [email protected]/* */