The.Fugitive.1993.1080p.Bluray.x265.10bit-z97

Magnet Download Torrent Download

Size : 1.4 GiB (1503445537 Bytes)













RELEASE NOTES












▄▄▄▄▄▄▄▄▄▄▄▄▄▄▄▄▄▄▄▄▄▄▄▄▄▄▄▄▄▄▄▄▄▄▄▄▄▄▄▄▄▄▄▄▄▄▄▄▄▄▄▄▄▄▄▄▄▄▄▄▄▄▄▄▄







The Fugitive 1993 1080p Bluray x265 10bit







iMDB url










: imdb.com/title/tt0106977/
iMDB Rating









: 7.8/10 from 216,889 votes
Release











: 1993 - August 6th
Genre












: Action, Crime, Drama
Source











: Retail Blu-ray
Subs












: ENG/FRE/SPA/ITA













PLOT SUMMARY










▄▄▄▄▄▄▄▄▄▄▄▄▄▄▄▄▄▄▄▄▄▄▄▄▄▄▄▄▄▄▄▄▄▄▄▄▄▄▄▄▄▄▄▄▄▄▄▄▄▄▄▄▄▄▄▄▄▄▄▄▄▄▄▄▄▄

Dr. Richard Kimble, unjustly accused of murdering his wife, must
find the real killer while being the target of a nationwide manhunt.

Director : Andrew Davis
Stars

: Harrison Ford, Tommy Lee Jones, Sela Ward












RELEASE INFORMATION








▄▄▄▄▄▄▄▄▄▄▄▄▄▄▄▄▄▄▄▄▄▄▄▄▄▄▄▄▄▄▄▄▄▄▄▄▄▄▄▄▄▄▄▄▄▄▄▄▄▄▄▄▄▄▄▄▄▄▄▄▄▄▄▄▄▄

Video
ID













: 1
Format











: HEVC
Format profile







: Main [email protected]/* [email protected]
Duration










: 2h 10mn
Bit rate










: 1 124 Kbps
Width












: 1 920 pixels
Height











: 1 080 pixels
Display aspect ratio




: 16:9
Frame rate mode







: Constant
Frame rate









: 23.976 fps
Color space









: YUV
Bit depth










: 10 bits
Stream size









: 1.02 GiB (73%)
Writing library







: x265 2.1+47 [64 bit] 10bit
Language










: English
Default











: Yes

Audio
ID













: 2
Format











: AC-3
Duration










: 2h 10mn
Bit rate mode








: Constant
Bit rate










: 384 Kbps
Channel(s)









: 6 channels
Channel positions






: Front: L C R, Side: L R, LFE
Sampling rate








: 48.0 KHz
Compression mode






: Lossy
Stream size









: 358 MiB (25%)
Language










: English
Default











: Yes