The Grand Tour 2016 S01E02 720p WEBRip HEVC 2CH x265


Size : 454.61 MiB (476698200 Bytes)

Source - Video:The Grand Tour S01E02 iNTERNAL 720p WEBRiP x264(2.19 GB)

Source - Audio:The.Grand Tour S01E02 1080p WEB x264-NSTPPBLL(821 MB)


Complete name:The.Grand.Tour.S01E02.720p.WEBRip.HEVC.2CH.x265.mkv
Format
















: Matroska
Format version












: Version 4 / Version 2
File size















: 455 MiB
Duration















: 57 min
Overall bit rate











: 1 102 kb/s
Movie name: The.Grand.Tour.S01E02.720p.WEBRip.HEVC.2CH.x265
Writing application










: mkvmerge v9.5.0 ('Quiet Fire') 32bit

Video

ID


















: 1
Format
















: V_MPEGH/ISO/HEVC
Duration















: 57 min
Bit rate















: 940 kb/s
Width

















: 1 280 pixels
Height
















: 720 pixels
Display aspect ratio









: 16:9
Frame rate mode












: Constant
Frame rate














: 23.976 (24000/1001) FPS
Color space














: YUV
Chroma subsampling










: 4:2:0
Bit depth















: 8 bits
Bits/(Pixel*Frame)










: 0.043
Stream size














: 388 MiB (85%)
Title: The.Grand.Tour.S01E02.720p.WEBRip.HEVC.2CH.x265
Language















: English
Default
















: Yes
Forced
















: No

Audio

ID


















: 2
Format
















: AAC
Format/Info














: Advanced Audio Codec
Format profile












: LC
Codec ID















: A_AAC
Duration















: 57 min
Bit rate















: 160 kb/s
Channel(s)














: 2 channels
Channel positions











: Front: L R
Sampling rate













: 44.1 kHz
Frame rate














: 43.066 FPS (1024 spf)
Compression mode











: Lossy
Delay relative to video








: 1 s 9 ms
Stream size














: 66.1 MiB (15%)
Title

















: AAC 2.0
Language















: English
Default
















: Yes
Forced
















: No

Release Note:

Good audio with perfect synced