The.Hunger.Games.Mockingjay.Part.2.2015.3D.Half-SBS.DD.5.1-PHX


Size : 12.57 GiB (13495068807 Bytes)

[torrentsgroup]


The Hunger Games: Mockingjay - Part 2 (2015)

Country:

Year: 2015

Genre: Adventure, Sci-Fi

Director: Francis Lawrence

Runtime: 137 min

IMDB: http://www.imdb.com/title/tt1951266/

Cast: Jennifer Lawrence, Josh Hutcherson, Liam Hemsworth, Woody Harrelson, Donald Sutherland, Philip Seymour Hoffman, Julianne Moore, Willow Shields, Sam Claflin, Elizabeth Banks, Mahershala Ali, Jena Malone, Jeffrey Wright, Paula Malcomson, Stanley Tucci and others


Plot:.

As the war of Panem escalates to the destruction of other districts by the Capitol, Katniss Everdeen, the reluctant leader of the rebellion, must bring together an army against President Snow, while all she holds dear hangs in the balance.

General
Unique ID










: 209659004657869627179678209835651301629 (0x9DBADB033BFAAE4199E284E8CAF800FD)
Complete name








: The.Hunger.Games.Mockingjay.Part.2.2015.3D.Half-SBS.DD.5.1-PHX.mkv
Format











: Matroska
Format version







: Version 2
File size










: 12.6 GiB
Duration










: 2h 17mn
Overall bit rate






: 13.1 Mbps
Movie name









: MOCKINGJAY_2_3D.Title645.Bluray3DRip
Encoded date








: UTC 2016-03-13 23:43:41
Writing application





: DVDFab
Writing library







: libebml v0.7.8 + libmatroska v0.8.1

Video
ID













: 1
Format











: AVC
Format/Info









: Advanced Video Codec
Format profile







: [email protected]/* */
Format settings, CABAC



: Yes
Format settings, ReFrames


: 2 frames
Codec ID










: V_MPEG4/ISO/AVC
Duration










: 2h 17mn
Bit rate










: 12.2 Mbps
Width












: 1 920 pixels
Height











: 1 080 pixels
Display aspect ratio




: 16:9
Frame rate mode







: Constant
Frame rate









: 23.976 (24000/1001) fps
Color space









: YUV
Chroma subsampling





: 4:2:0
Bit depth










: 8 bits
Scan type










: Progressive
Bits/(Pixel*Frame)





: 0.245
Stream size









: 11.7 GiB (93%)
Writing library







: x264 core
Default











: Yes
Forced











: No
Color range









: Limited
Color primaries







: BT.709
Transfer characteristics


: BT.709
Matrix coefficients





: BT.709

Audio
ID













: 2
Format











: AC-3
Format/Info









: Audio Coding 3
Mode extension







: CM (complete main)
Format settings, Endianness

: Big
Codec ID










: A_AC3
Duration










: 2h 17mn
Bit rate mode








: Constant
Bit rate










: 640 Kbps
Channel(s)









: 6 channels
Channel positions






: Front: L C R, Side: L R, LFE
Sampling rate








: 48.0 KHz
Frame rate









: 31.250 fps (1536 spf)
Compression mode






: Lossy
Stream size









: 631 MiB (5%)
Default











: Yes
Forced











: No

Menu
00:00:00.000








: en:(01)00:00:00:000
00:10:58.115








: en:(02)00:10:58:115
00:19:43.682








: en:(03)00:19:43:682
00:29:34.105








: en:(04)00:29:34:105
00:43:44.955








: en:(05)00:43:44:955
00:55:20.900








: en:(06)00:55:20:900
01:04:54.849








: en:(07)01:04:54:849
01:19:02.988








: en:(08)01:19:02:988
01:37:28.259








: en:(09)01:37:28:259
01:49:21.805








: en:(10)01:49:21:805
01:59:34.417








: en:(11)01:59:34:417
02:05:49.792








: en:(12)02:05:49:792