The Lego Movie 2014 3D 1080p BluRay Half SBS DTS HDA DUAL ASM


Size : 9.36 GiB (10045545504 Bytes)

The first feature film LEGO ® presents Emmet, mini figure LEGO ® follower of rules and perfectly ordinary that is wrongly identified as the most extraordinary person and the key to saving the world. He is recruited to join a society of strangers and go on an epic quest to stop a tyrant, a fun journey for which Emmet will totally unprepared.

Original title: The Lego Movie
Translated Title: A LEGO Adventure
Genre: Animation
Duration: 1h: 40min
Release: 2014
Director: Phil Lord, Christopher Miller
IMDB: http://www.imdb.com/title/tt1490017/

Size: 9:36 GB
Quality: Blu-Ray - 3D
File Format:. MKV
Resolution: 1920 x 1080
Video codec: H.264 / AVC
Audio Codec: AC3/DTS
Audio Languages​​: Portuguese / English
Subtitles: Portuguese


Format
















: Matroska
Format version












: Version 2
File size















: 9.34 GiB
Duration















: 1h 40mn
Overall bit rate











: 13.3 Mbps
Movie name














: Dual by alesimba_20
Encoded date













: UTC 2014-05-29 20:31:15
Writing application










: mkvmerge v4.0.0 ('The Stars were mine') built on Jun
6 2010 16:18:42
Writing library












: libebml v1.0.0 + libmatroska v1.0.0

Video
ID


















: 1
Format
















: AVC
Format/Info














: Advanced Video Codec
Format profile












: [email protected]/* */
Format settings, CABAC








: Yes
Format settings, ReFrames







: 4 frames
Format settings, GOP









: M=7, N=9
Codec ID















: V_MPEG4/ISO/AVC
Duration















: 1h 40mn
Bit rate















: 11.1 Mbps
Width

















: 1 920 pixels
Height
















: 1 080 pixels
Display aspect ratio









: 16:9
Frame rate














: 23.976 fps
Color space














: YUV
Chroma subsampling










: 4:2:0
Bit depth















: 8 bits
Scan type















: Progressive
Bits/(Pixel*Frame)










: 0.223
Stream size














: 7.77 GiB (83%)
Writing library












: x264 core 133 r2334 a3ac64b
Encoding settings











: cabac=1 / ref=4 / deblock=1:-1:-1 / analyse=0x3:0x133 / me=umh / subme=9 / psy=1 / psy_rd=0.90:0.00 / mixed_ref=1 / me_range=24 / chroma_me=1 / trellis=1 / 8x8dct=1 / cqm=0 / deadzone=21,11 / fast_pskip=0 / chroma_qp_offset=-2 / threads=6 / lookahead_threads=1 / sliced_threads=0 / nr=0 / decimate=1 / interlaced=0 / bluray_compat=0 / constrained_intra=0 / bframes=6 / b_pyramid=2 / b_adapt=2 / b_bias=0 / direct=3 / weightb=1 / open_gop=0 / weightp=2 / keyint=9 / keyint_min=1 / scenecut=40 / intra_refresh=0 / rc_lookahead=17 / rc=crf / mbtree=0 / crf=17.4 / qcomp=0.60 / qpmin=0 / qpmax=69 / qpstep=4 / vbv_maxrate=40000 / vbv_bufsize=30000 / crf_max=0.0 / nal_hrd=none / ip_ratio=1.40 / pb_ratio=1.30 / aq=1:0.70
Default
















: No
Forced
















: No

Audio #1
ID


















: 2
Format
















: AC-3
Format/Info














: Audio Coding 3
Mode extension












: CM (complete main)
Format settings, Endianness






: Big
Codec ID















: A_AC3
Duration















: 1h 40mn
Bit rate mode













: Constant
Bit rate















: 448 Kbps
Channel(s)














: 6 channels
Channel positions











: Front: L C R, Side: L R, LFE
Sampling rate













: 48.0 KHz
Bit depth















: 16 bits
Compression mode











: Lossy
Stream size














: 322 MiB (3%)
Title

















: AC3 5.1 - ASM
Language















: Portuguese
Default
















: Yes
Forced
















: Yes

Audio #2
ID


















: 3
Format
















: DTS
Format/Info














: Digital Theater Systems
Codec ID















: A_DTS
Duration















: 1h 40mn
Bit rate mode













: Constant
Bit rate















: 1 510 Kbps
Channel(s)














: 6 channels
Channel positions











: Front: L C R, Side: L R, LFE
Sampling rate













: 48.0 KHz
Bit depth















: 24 bits
Compression mode











: Lossy
Delay relative to video








: 11ms
Stream size














: 1.06 GiB (11%)
Language















: English
Default
















: No
Forced
















: No

Text
ID


















: 4
Format
















: PGS
Codec ID















: S_HDMV/PGS
Codec ID/Info













: The same subtitle format used on BDs/HD-DVDs
Language















: Portuguese
Default
















: No
Forced
















: No


SEED PLEASE

ENJOY...