The Lion King (PSP + Ipod touch + Zune)


Size : 309.34 MiB (324370768 Bytes)

The Lion King
http://www.imdb.com/title/tt0110357/

Subs :

N/A

Source
:

The_Lion_King-Special_Edition_1994_720p_HDTV_x264-hV

Info :

ID














: 1
Format












: AVC
Format/Info










: Advanced Video Codec
Format profile








: [email protected]/* */
Format settings, CABAC




: No
Format settings, ReFrames



: 3 frames
Codec ID











: avc1
Codec ID/Info









: Advanced Video Coding
Duration











: 1h 22mn
Bit rate mode









: Variable
Bit rate











: 395 Kbps
Width













: 464 pixels
Height












: 272 pixels
Display aspect ratio





: 16:9
Frame rate mode








: Variable
Frame rate










: 23.976 fps
Minimum frame rate






: 23.810 fps
Maximum frame rate






: 24.390 fps
Color space










: YUV
Chroma subsampling






: 4:2:0
Bit depth











: 8 bits
Scan type











: Progressive
Bits/(Pixel*Frame)






: 0.131
Stream size










: 232 MiB (75%)
Writing library








: x264 core 79

ID














: 2
Format












: AAC
Format/Info










: Advanced Audio Codec
Format version








: Version 4
Format profile








: LC
Format settings, SBR





: No
Codec ID











: 40
Duration











: 1h 22mn
Bit rate mode









: Variable
Bit rate











: 128 Kbps
Maximum bit rate







: 217 Kbps
Channel(s)










: 2 channels
Channel positions







: Front: L R
Sampling rate









: 48.0 KHz
Stream size










: 75.1 MiB (24%)
Language











: English

Screens:
http://img830.imageshack.us/img830/5484/thelionkingooom4vthumbs.jpg

PLEASE LET THE TORRENT SEED AND SPREAD THE WORD ABOUT IT!

Let me know what I can do to be your trusted source of Handheld videos.
http://thepiratebay.se/user/on.off.on/ -OOO