The Paperboy 2012 NL


Size : 350.95 MiB (367999996 Bytes)

Format












: MPEG-4
Format profile








: Base Media / Version 2
Codec ID











: mp42
File size











: 351 MiB
Duration











: 1h 47mn
Overall bit rate







: 458 Kbps
Encoded date









: UTC 2013-03-10 21:44:05
Tagged date










: UTC 2013-03-10 21:44:05

Video
ID














: 1
Format












: AVC
Format/Info










: Advanced Video Codec
Format profile








: [email protected]/* */
Format settings, CABAC




: Yes
Format settings, ReFrames



: 3 frames
Codec ID











: avc1
Codec ID/Info









: Advanced Video Coding
Duration











: 1h 47mn
Bit rate mode









: Variable
Bit rate











: 402 Kbps
Width













: 704 pixels
Height












: 304 pixels
Display aspect ratio





: 2.35:1
Frame rate mode








: Variable
Frame rate










: 30.000 fps
Minimum frame rate






: 30.000 fps
Maximum frame rate






: 30.030 fps
Standard











: NTSC
Resolution










: 8 bits
Colorimetry










: 4:2:0
Scan type











: Progressive
Bits/(Pixel*Frame)






: 0.063
Stream size










: 308 MiB (88%)
Language











: English
Encoded date









: UTC 2013-03-10 21:44:05
Tagged date










: UTC 2013-03-10 21:44:05
Color primaries








: BT.601-6 525, BT.1358 525, BT.1700 NTSC, SMPTE 170M
Transfer characteristics



: BT.601-6 525, BT.601-6 625, BT.1358 525, BT.1358 625, BT.1700 NTSC, SMPTE 170M
Matrix coefficients






: BT.601-6 525, BT.1358 525, BT.1700 NTSC, SMPTE 170M

Audio
ID














: 2
Format












: AAC
Format/Info










: Advanced Audio Codec
Format version








: Version 4
Format profile








: LC
Format settings, SBR





: No
Codec ID











: 40
Duration











: 1h 47mn
Bit rate mode









: Variable
Bit rate











: 53.7 Kbps
Maximum bit rate







: 202 Kbps
Channel(s)










: 2 channels
Channel positions







: Front: L R
Sampling rate









: 44.1 KHz
Stream size










: 41.1 MiB (12%)
Language











: English
Encoded date









: UTC 2013-03-10 21:44:05
Tagged date










: UTC 2013-03-10 21:44:05