The.People.v.O.J.Simpson.American.Crime.Story.S01.720p.BluRay-OJ


Size : 22.83 GiB (24516141442 Bytes)

The.People.v.O.J.Simpson.American.Crime.Story.S01.720p.BluRay.x264-MAYHEM
http://www.imdb.com/title/tt2788432/

Video
ID


















: 1
Format
















: AVC
Format/Info














: Advanced Video Codec
Format profile












: [email protected]/* */
Format settings, CABAC








: Yes
Format settings, ReFrames







: 5 frames
Codec ID















: V_MPEG4/ISO/AVC
Duration















: 57mn 58s
Bit rate















: 5 021 Kbps
Width

















: 1 280 pixels
Height
















: 720 pixels
Display aspect ratio









: 16:9
Frame rate mode












: Constant
Frame rate














: 23.976 (24000/1001) fps
Color space














: YUV
Chroma subsampling










: 4:2:0
Bit depth















: 8 bits
Scan type















: Progressive
Bits/(Pixel*Frame)










: 0.227
Stream size














: 2.03 GiB (77%)
Writing library












: x264 core 148 r2705 3f5ed56
Language















: English
Default
















: Yes
Forced
















: No

Audio
ID


















: 2
Format
















: DTS
Format/Info














: Digital Theater Systems
Mode

















: 16
Format settings, Endianness






: Big
Codec ID















: A_DTS
Duration















: 57mn 58s
Bit rate mode













: Constant
Bit rate















: 1 509 Kbps
Channel(s)














: 6 channels
Channel positions











: Front: L C R, Side: L R, LFE
Sampling rate













: 48.0 KHz
Frame rate














: 93.750 fps (512 spf)
Bit depth















: 24 bits
Compression mode











: Lossy
Stream size














: 626 MiB (23%)
Language















: English
Default
















: Yes
Forced
















: No

Menu
00:00:00.000













: en:00:00:00.000
00:10:54.821













: en:00:10:54.821
00:19:47.520













: en:00:19:47.520
00:25:53.719













: en:00:25:53.719
00:33:16.995













: en:00:33:16.995
00:44:53.399













: en:00:44:53.399
00:57:04.046













: en:00:57:04.046