The.Protector.2.2013.3D.1080p.Bluray.HOU.1080p.DTS.x264-CHD3D (S


Size : 8.81 GiB (9462113586 Bytes)

SilverTorrent - Clean And Verified Torrents Download
http://i.imgur.com/ky6BGho.png
http://i.imgur.com/5SJzaiJ.jpg


The.Protector.2.2013.3D.1080p.Bluray.HOU.1080p.DTS.x264-CHD3D (Silver Torrent)

iMDB:http://www.imdb.com/title/tt1925518/

Format












: Matroska
File size











: 8.81 GiB
Duration











: 1h 44mn
Overall bit rate







: 12.1 Mbps
Movie name










: The protector 2 3D
Encoded date









: UTC 2014-08-20 11:55:58
Writing application






: mkvmerge v6.7.0 ('Back to the Ground'wink.gif 32bit built on Jan
8 2014 15:03:17
Writing library








: libebml v1.3.0 + libmatroska v1.4.1
Cover













: Yes / Yes

Video
ID














: 1
Format












: AVC
Format/Info










: Advanced Video Codec
Format profile








: [email protected]/* */
Format settings, CABAC




: Yes
Format settings, ReFrames



: 4 frames
Codec ID











: V_MPEG4/ISO/AVC
Duration











: 1h 44mn
Bit rate











: 10.3 Mbps
Width













: 1 920 pixels
Height












: 1 080 pixels
Display aspect ratio





: 16:9
Frame rate










: 23.976 fps
Color space










: YUV
Chroma subsampling






: 4:2:0
Bit depth











: 8 bits
Scan type











: Progressive
Bits/(Pixel*Frame)






: 0.208
Stream size










: 7.53 GiB (85%)
Title













: 3D-T&B
Writing library








: x264 core 142 r2389 956c8d8
Encoding settings







: cabac=1 / ref=4 / deblock=1:-3:-3 / analyse=0x3:0x113 / me=umh / subme=10 / psy=1 / psy_rd=1.00:0.00 / mixed_ref=1 / me_range=32 / chroma_me=1 / trellis=2 / 8x8dct=1 / cqm=0 / deadzone=21,11 / fast_pskip=0 / chroma_qp_offset=-4 / threads=6 / lookahead_threads=1 / sliced_threads=0 / nr=0 / decimate=0 / interlaced=0 / bluray_compat=0 / constrained_intra=0 / bframes=6 / b_pyramid=2 / b_adapt=2 / b_bias=0 / direct=3 / weightb=1 / open_gop=0 / weightp=2 / keyint=250 / keyint_min=23 / scenecut=40 / intra_refresh=0 / rc=crf / mbtree=0 / crf=17.0 / qcomp=0.80 / qpmin=0 / qpmax=69 / qpstep=4 / frame-packing=4 / ip_ratio=1.30 / pb_ratio=1.30 / aq=2:0.90

Audio
ID














: 2
Format












: DTS
Format/Info










: Digital Theater Systems
Codec ID











: A_DTS
Duration











: 1h 44mn
Bit rate mode









: Constant
Bit rate











: 1 510 Kbps
Channel(s)










: 6 channels
Channel positions







: Front: L C R, Side: L R, LFE
Sampling rate









: 48.0 KHz
Bit depth











: 16 bits
Compression mode







: Lossy
Stream size










: 1.10 GiB (13%)
Title













: Thai DTS Core of DTS-HD (Bitrate: 1536Kbps
core + MLP data.Sample Rate: 48KHz
Channels: 5.1 (DTS Master Audio))
Language











: Thai

Text #1
ID














: 3
Format












: VobSub
Codec ID











: S_VOBSUB
Codec ID/Info









: The same subtitle format used on DVDs
Title













: English (3D PGS)
Language











: English

Text #2
ID














: 4
Format












: VobSub
Codec ID











: S_VOBSUB
Codec ID/Info









: The same subtitle format used on DVDs
Title













: Chinese (3D PGS)
Language











: Chinese

Text #3
ID














: 5
Format












: VobSub
Codec ID











: S_VOBSUB
Codec ID/Info









: The same subtitle format used on DVDs
Title













: Chinese (3D PGS)
Language











: Chinese
http://i.imgur.com/NmneLu7s.jpg
http://i.imgur.com/g4KR0VIs.jpg
http://i.imgur.com/O8JFlk3s.jpg