The.Secret.Life.Of.Pets {1080p} {MPEG-4}

Magnet Download Torrent Download

Size : 1.31 GiB (1408762135 Bytes)

Title: The Secret Life of Pets
Format: MPEG-4
Duration: 1 h 26 m
Release Date: July 8th, 2016
Size: 1.31 GiB

IMDB: http://www.imdb.com/title/tt2709768/

The quiet life of a terrier named Max is upended when his owner takes in Duke, a stray whom Max instantly dislikes.

Taking place in a Manhattan apartment building, Max's life as a favorite pet is turned upside down, when his owner brings home a sloppy mongrel named Duke. They have to put their quarrels behind when they find out that an adorable white bunny named Snowball is building an army of lost pets determined to take revenge

Video
ID












: 1
Format










: AVC
Format/Info







: Advanced Video Codec
Format profile






: [email protected]/* */
Format settings, CABAC


: Yes
Format settings, ReFrames
: 4 frames
Codec ID









: avc1
Codec ID/Info






: Advanced Video Coding
Duration









: 1 h 26 min
Bit rate









: 2 050 kb/s
Width










: 1 920 pixels
Height










: 1 024 pixels
Display aspect ratio



: 1.85:1
Frame rate mode





: Constant
Frame rate








: 23.976 FPS
Color space







: YUV
Chroma subsampling




: 4:2:0
Bit depth








: 8 bits
Scan type








: Progressive
Bits/(Pixel*Frame)




: 0.043
Stream size







: 1.24 GiB (94%)
Writing library





: x264 core 148

Audio
ID












: 2
Format










: AAC
Format/Info







: Advanced Audio Codec
Format profile






: LC
Codec ID









: 40
Duration









: 1 h 26 min
Bit rate mode






: Constant
Bit rate









: 119 kb/s
Channel(s)








: 2 channels
Channel positions




: Front: L R
Sampling rate






: 48.0 kHz
Frame rate








: 46.875 FPS (1024 spf)
Compression mode





: Lossy
Stream size







: 73.3 MiB (5%)
Default









: Yes
Alternate group





: 1