The Simpsons Season 27 Complete S27 [720p] ~{KiNg}


Size : 4.83 GiB (5184833229 Bytes)


General
Format : Matroska
Format version : Version 4 / Version 2
File size : 225 MiB
Duration : 21mn 22s
Overall bit rate : 1 470 Kbps

Video
ID : 1
Format : AVC
Format/Info : Advanced Video Codec
Format profile : [email protected]/* */
Format settings, CABAC : Yes
Format settings, ReFrames : 4 frames
Codec ID : V_MPEG4/ISO/AVC
Duration : 21mn 22s
Bit rate : 1 394 Kbps
Width : 1 280 pixels
Height : 716 pixels
Display aspect ratio : 16:9
Frame rate mode : Constant
Frame rate : 23.976 (24000/1001) fps
Color space : YUV
Chroma subsampling : 4:2:0
Bit depth : 8 bits
Scan type : Progressive
Bits/(Pixel*Frame) : 0.063

Audio
ID : 2
Format : AAC
Format/Info : Advanced Audio Codec
Format profile : LC
Codec ID : A_AAC
Duration : 21mn 22s
Bit rate : 72.0 Kbps
Channel(s) : 2 channels
Channel positions : Front: L R
Sampling rate : 48.0 KHz
Frame rate : 46.875 fps (1024 spf)
Compression mode : Lossy
Delay relative to video : 9ms
Stream size : 11.2 MiB (5%)
Language : English
Default : No
Forced : No

Text
ID : 3
Format : UTF-8
Codec ID : S_TEXT/UTF8
Codec ID/Info : UTF-8 Plain Text
Duration : 21mn 15s
Bit rate : 89 bps
Count of elements : 490
Stream size : 13.9 KiB (0%)
Title : English
Language : English
Default : Yes
Forced : No


REMEMBER SEED!!!!!!!