The Way 2010 x264 RB58.mp4


Size : 843.95 MiB (884948018 Bytes)

The Way (2010) with Martin Sheen DVDRip x264
http://www.imdb.com/title/tt1441912/


Please be patient My upload speed is limited, but I am online most the time and during the night.
Thank you for your kind comments and thumbs ups on my other torrents, your feedback is welcome.


About the Film:
Thomas Avery (Martin Sheen) is an American ophthalmologist who goes to France following the death of
his adult son, Daniel (Emilio Estevez), killed in the Pyrenees during a storm while walking the
Camino de Santiago (the Way of St. James), a Catholic pilgrimage route to the Cathedral of Santiago
de Compostela in Galicia, Spain.
Tom's purpose is initially to retrieve his son's body. However, in a combination of grief and
homage to his son, Tom decides to walk the ancient spiritual trail where his son died, taking
Daniel's ashes with him.


I hope you enjoy.


Technical:

Format
















: MPEG-4
Format profile












: Base Media / Version 2
Codec ID















: mp42
File size















: 844 MiB
Duration















: 2h 3mn
Overall bit rate mode









: Variable
Overall bit rate











: 958 Kbps
Encoded date













: UTC 2014-03-23 17:51:48
Tagged date














: UTC 2014-03-23 18:16:48
Writing application










: HandBrake 0.9.8 2012071700

Video
ID


















: 1
Format
















: AVC
Format/Info














: Advanced Video Codec
Format profile












: [email protected]/* */
Format settings, CABAC








: Yes
Format settings, ReFrames







: 4 frames
Codec ID















: avc1
Codec ID/Info













: Advanced Video Coding
Duration















: 2h 3mn
Bit rate mode













: Variable
Bit rate















: 800 Kbps
Width

















: 720 pixels
Height
















: 552 pixels
Display aspect ratio









: 1.85:1
Frame rate mode












: Constant
Frame rate














: 25.000 fps
Color space














: YUV
Chroma subsampling










: 4:2:0
Bit depth















: 8 bits
Scan type















: Progressive
Bits/(Pixel*Frame)










: 0.081
Stream size














: 705 MiB (83%)
Writing library












: x264 core 120
Encoding settings











: cabac=1 / ref=1 / deblock=1:0:0
Encoded date













: UTC 2014-03-23 17:51:48
Tagged date














: UTC 2014-03-23 18:16:48
Color primaries












: BT.601 NTSC
Transfer characteristics







: BT.709
Matrix coefficients










: BT.601

Audio
ID


















: 2
Format
















: MPEG Audio
Format version












: Version 1
Format profile












: Layer 3
Codec ID















: 69
Duration















: 2h 3mn
Bit rate mode













: Variable
Bit rate















: 154 Kbps
Maximum bit rate











: 186 Kbps
Channel(s)














: 2 channels
Sampling rate













: 48.0 KHz
Compression mode











: Lossy
Delay relative to video








: 80ms
Stream size














: 136 MiB (16%)
Language















: English
Encoded date













: UTC 2014-03-23 17:51:48
Tagged date














: UTC 2014-03-23 18:16:47