The Wolverine (2013) 3D HSBS Dual audio Español Latino, I


Size : 3.8 GiB (4084371628 Bytes)

SIPNOSIS
Un Logan amnésico busca respuestas sobre su pasado en el mundo del crimen organizado de Japón. Vulnerable por primera vez y desafiando sus límites físicos y emocionales, no sólo se enfrentará al letal acero samurái, también se verá en una lucha interna contra su propia inmortalidad que le volverá más fuerte


Format : Matroska
Format version : Version 4 / Version 2
File size : 3.80 GiB
Duration : 2h 6mn
Overall bit rate : 4 317 Kbps
Encoded date : UTC 2013-11-12 19:19:06
Writing application : mkvmerge v6.3.0 ('You can't stop me!') built on Jun 28 2013 20:09:41
Writing library : libebml v1.3.0 + libmatroska v1.4.0

Video
ID : 1
Format : AVC
Format/Info : Advanced Video Codec
Format profile : [email protected]/* */
Format settings, CABAC : Yes
Format settings, ReFrames : 4 frames
Codec ID : V_MPEG4/ISO/AVC
Duration : 2h 6mn
Bit rate : 3 463 Kbps
Width : 1 920 pixels
Height : 800 pixels
Display aspect ratio : 2.40:1
Frame rate mode : Constant
Frame rate : 23.976 fps
Color space : YUV
Chroma subsampling : 4:2:0
Bit depth : 8 bits
Scan type : Progressive
Bits/(Pixel*Frame) : 0.094
Stream size : 3.05 GiB (80%)
Writing library : x264 core 130 r2273 b3065e6
Encoding settings : cabac=1 // deblock=1:0:0 / analyse=0x1:0x111 / me=hex / subme=2 / psy=1 / psy_rd=1.00:0.00 // me_range=16 / chroma_me=1 / trellis=0 / 8x8dct=0 / cqm=0 / deadzone=21,11 / fast_pskip=1 / chroma_qp_offset=0 / threads=6 / lookahead_threads=2 / sliced_threads=0 / nr=0 / decimate=1 / interlaced=0 / bluray_compat=0 / constrained_intra=0 / bframes=3 / b_pyramid=2 / b_adapt=1 / b_bias=0 / direct=1 / weightb=1 / open_gop=0 / weightp=1 / keyint=240 / keyint_min=24 / scenecut=40 / intra_refresh=0 / rc_lookahead=10 / rc=crf / mbtree=1 / crf=21.0 / qcomp=0.60 / qpmin=0 / qpmax=69 / qpstep=4 / vbv_maxrate=20000 / vbv_bufsize=25000 / crf_max=0.0 / nal_hrd=none / ip_ratio=1.40 / aq=1:1.00
Language : English
Default : Yes
Forced : No
Color primaries : BT.709
Transfer characteristics : BT.709
Matrix coefficients : BT.709

Audio #1
ID : 2
Format : AC-3
Format/Info : Audio Coding 3
Mode extension : CM (complete main)
Format settings, Endianness : Big
Codec ID : A_AC3
Duration : 2h 6mn
Bit rate mode : Constant
Bit rate : 384 Kbps
Channel(s) : 6 channels
Channel positions : Front: L C R, Side: L R, LFE
Sampling rate : 48.0 KHz
Bit depth : 16 bits
Compression mode : Lossy
Stream size : 346 MiB (9%)
Title : Español Latino
Language : Latin
Default : Yes
Forced : No

Audio #2
ID : 3
Format : AC-3
Format/Info : Audio Coding 3
Mode extension : CM (complete main)
Format settings, Endianness : Big
Codec ID : A_AC3
Duration : 2h 6mn
Bit rate mode : Constant
Bit rate : 384 Kbps
Channel(s) : 6 channels
Channel positions : Front: L C R, Side: L R, LFE
Sampling rate : 48.0 KHz
Bit depth : 16 bits
Compression mode : Lossy
Stream size : 346 MiB (9%)
Title : Ingles
Language : English
Default : No
Forced : No

Text #1
ID : 4
Format : UTF-8
Codec ID : S_TEXT/UTF8
Codec ID/Info : UTF-8 Plain Text
Title : Forzados
Language : Latin
Default : Yes
Forced : Yes

Text #2
ID : 5
Format : UTF-8
Codec ID : S_TEXT/UTF8
Codec ID/Info : UTF-8 Plain Text
Title : Español Latino
Language : Latin
Default : No
Forced : No

Menu
00:00:00.000 : en:Chapter 1
00:05:03.720 : en:Chapter 2
00:07:39.668 : en:Chapter 3
00:08:40.437 : en:Chapter 4
00:10:25.500 : en:Chapter 5
00:13:56.794 : en:Chapter 6
00:16:49.300 : en:Chapter 7
00:19:13.069 : en:Chapter 8
00:22:03.739 : en:Chapter 9
00:26:38.305 : en:Chapter 10
00:28:53.398 : en:Chapter 11
00:30:21.403 : en:Chapter 12
00:33:43.146 : en:Chapter 13
00:38:08.244 : en:Chapter 14
00:42:42.310 : en:Chapter 15
00:44:19.073 : en:Chapter 16
00:47:06.741 : en:Chapter 17
00:52:38.280 : en:Chapter 18
00:54:37.316 : en:Chapter 19
01:00:06.478 : en:Chapter 20
01:06:16.222 : en:Chapter 21
01:11:36.959 : en:Chapter 22
01:16:25.206 : en:Chapter 23
01:19:30.808 : en:Chapter 24
01:22:34.575 : en:Chapter 25
01:27:33.206 : en:Chapter 26
01:30:37.140 : en:Chapter 27
01:33:00.033 : en:Chapter 28
01:36:33.204 : en:Chapter 29
01:40:14.217 : en:Chapter 30
01:43:04.512 : en:Chapter 31
01:46:07.695 : en:Chapter 32
01:51:06.076 : en:Chapter 33
01:53:01.566 : en:Chapter 34
01:55:50.861 : en:Chapter 35
01:57:21.451 : en:Chapter 36