The.Wolverine.3D.(2013).1080p.HSBS.x264.Hun.Eng


Size : 3.86 GiB (4144404962 Bytes)

The.Wolverine.3D.(2013).1080p.HSBS.x264.Hun.Eng
http://www.imdb.com/title/tt1430132/

General
Unique ID















: 202858200182628631656368771800704292481 (0x989D1176D757764ABBA8067648C91681)
Complete name













: F:The.Wolverine.3D.(2013).1080p.HSBS.x264.Hun.EngThe Wolverine 3D (2013) 1080p.mkv
Format
















: Matroska
Format version












: Version 4 / Version 2
File size















: 3.86 GiB
Duration















: 2h 6mn
Overall bit rate











: 4 381 Kbps
Encoded date













: UTC 2013-11-18 11:04:07
Writing application










: mkvmerge v6.5.0 ('Isn't she lovely') built on Oct 20 2013 12:50:05
Writing library












: libebml v1.3.0 + libmatroska v1.4.1

Video
ID


















: 1
Format
















: AVC
Format/Info














: Advanced Video Codec
Format profile












: [email protected]/* */
Format settings, CABAC








: Yes
Format settings, ReFrames







: 4 frames
Codec ID















: V_MPEG4/ISO/AVC
Duration















: 2h 6mn
Bit rate















: 3 461 Kbps
Width

















: 1 920 pixels
Height
















: 800 pixels
Display aspect ratio









: 2.40:1
Frame rate mode












: Constant
Frame rate














: 23.976 fps
Color space














: YUV
Chroma subsampling










: 4:2:0
Bit depth















: 8 bits
Scan type















: Progressive
Bits/(Pixel*Frame)










: 0.094
Stream size














: 3.05 GiB (79%)
Title

















: The Wolverine (2013) 1080p
Writing library












: x264 core 130 r2273 b3065e6
Encoding settings











: cabac=1 // deblock=1:0:0 / analyse=0x1:0x111 / me=hex / subme=2 / psy=1 / psy_rd=1.00:0.00 // me_range=16 / chroma_me=1 / trellis=0 / 8x8dct=0 / cqm=0 / deadzone=21,11 / fast_pskip=1 / chroma_qp_offset=0 / threads=6 / lookahead_threads=2 / sliced_threads=0 / nr=0 / decimate=1 / interlaced=0 / bluray_compat=0 / constrained_intra=0 / bframes=3 / b_pyramid=2 / b_adapt=1 / b_bias=0 / direct=1 / weightb=1 / open_gop=0 / weightp=1 / keyint=240 / keyint_min=24 / scenecut=40 / intra_refresh=0 / rc_lookahead=10 / rc=crf / mbtree=1 / crf=21.0 / qcomp=0.60 / qpmin=0 / qpmax=69 / qpstep=4 / vbv_maxrate=20000 / vbv_bufsize=25000 / crf_max=0.0 / nal_hrd=none / ip_ratio=1.40 / aq=1:1.00
Default
















: Yes
Forced
















: No
Color primaries












: BT.709
Transfer characteristics







: BT.709
Matrix coefficients










: BT.709

Audio #1
ID


















: 2
Format
















: AC-3
Format/Info














: Audio Coding 3
Mode extension












: CM (complete main)
Format settings, Endianness






: Big
Codec ID















: A_AC3
Duration















: 2h 6mn
Bit rate mode













: Constant
Bit rate















: 448 Kbps
Channel(s)














: 6 channels
Channel positions











: Front: L C R, Side: L R, LFE
Sampling rate













: 48.0 KHz
Bit depth















: 16 bits
Compression mode











: Lossy
Stream size














: 404 MiB (10%)
Title

















: 5.1
Language















: Hungarian
Default
















: Yes
Forced
















: No

Audio #2
ID


















: 3
Format
















: AC-3
Format/Info














: Audio Coding 3
Mode extension












: CM (complete main)
Format settings, Endianness






: Big
Codec ID















: A_AC3
Duration















: 2h 6mn
Bit rate mode













: Constant
Bit rate















: 384 Kbps
Channel(s)














: 6 channels
Channel positions











: Front: L C R, Side: L R, LFE
Sampling rate













: 48.0 KHz
Bit depth















: 16 bits
Compression mode











: Lossy
Stream size














: 346 MiB (9%)
Title

















: 5.1
Language















: English
Default
















: No
Forced
















: No
http://port.hu/farkas_the_wolverine/pls/fi/films.film_page?i_topic_id=2&i_film_id=136327&i_city_id=-1&i_county_id=-1