Thor.The.Dark.World.3D.2013.HSBS.1080p.x264.Hun.Eng


Size : 3.88 GiB (4164944854 Bytes)

Thor.The.Dark.World.3D.2013.HSBS.1080p.x264.Hun.Eng
http://www.imdb.com/title/tt1981115/

General
Unique ID















: 253851418282932920426311036429963152342 (0xBEFA0139E49B4D4899032DC8FF90CBD6)
Complete name













: F:Thor.The.Dark.World.3D.2013.HSBS.1080p.x264.Hun.EngThor The Dark World 3D (2013) HSBS 1080p.mkv
Format
















: Matroska
Format version












: Version 4 / Version 2
File size















: 3.88 GiB
Duration















: 1h 52mn
Overall bit rate











: 4 956 Kbps
Encoded date













: UTC 2014-03-21 09:19:38
Writing application










: mkvmerge v6.7.0 ('Back to the Ground') 64bit built on Jan
8 2014 15:10:52
Writing library












: libebml v1.3.0 + libmatroska v1.4.1

Video
ID


















: 1
Format
















: AVC
Format/Info














: Advanced Video Codec
Format profile












: [email protected]/* */
Format settings, CABAC








: Yes
Format settings, ReFrames







: 4 frames
Codec ID















: V_MPEG4/ISO/AVC
Duration















: 1h 52mn
Bit rate















: 2 549 Kbps
Width

















: 1 920 pixels
Height
















: 1 080 pixels
Display aspect ratio









: 16:9
Frame rate mode












: Constant
Frame rate














: 23.976 fps
Color space














: YUV
Chroma subsampling










: 4:2:0
Bit depth















: 8 bits
Scan type















: Progressive
Bits/(Pixel*Frame)










: 0.051
Stream size














: 1.92 GiB (49%)
Title

















: Thor The Dark World 3D (2013) HSBS 1080p
Writing library












: x264 core 142 r2389 956c8d8
Encoding settings











: cabac=1 / ref=3 / deblock=1:-1:-1 / analyse=0x3:0x113 / me=hex / subme=7 / psy=1 / psy_rd=1.00:0.15 / mixed_ref=1 / me_range=16 / chroma_me=1 / trellis=1 / 8x8dct=1 / cqm=0 / deadzone=21,11 / fast_pskip=1 / chroma_qp_offset=-3 / threads=12 / lookahead_threads=2 / sliced_threads=0 / nr=0 / decimate=1 / interlaced=0 / bluray_compat=0 / constrained_intra=0 / bframes=3 / b_pyramid=2 / b_adapt=1 / b_bias=0 / direct=1 / weightb=1 / open_gop=0 / weightp=2 / keyint=240 / keyint_min=23 / scenecut=40 / intra_refresh=0 / rc_lookahead=40 / rc=2pass / mbtree=1 / bitrate=2549 / ratetol=1.0 / qcomp=0.60 / qpmin=0 / qpmax=69 / qpstep=4 / cplxblur=20.0 / qblur=0.5 / vbv_maxrate=62500 / vbv_bufsize=78125 / nal_hrd=none / filler=0 / ip_ratio=1.40 / aq=1:1.00
Default
















: Yes
Forced
















: No

Audio #1
ID


















: 2
Format
















: AC-3
Format/Info














: Audio Coding 3
Mode extension












: CM (complete main)
Format settings, Endianness






: Big
Codec ID















: A_AC3
Duration















: 1h 52mn
Bit rate mode













: Constant
Bit rate















: 448 Kbps
Channel count













: 6 channels
Channel positions











: Front: L C R, Side: L R, LFE
Sampling rate













: 48.0 KHz
Bit depth















: 16 bits
Compression mode











: Lossy
Stream size














: 359 MiB (9%)
Title

















: 5.1
Language















: Hungarian
Default
















: Yes
Forced
















: No

Audio #2
ID


















: 3
Format
















: DTS
Format/Info














: Digital Theater Systems
Mode

















: 16
Format settings, Endianness






: Big
Codec ID















: A_DTS
Duration















: 1h 52mn
Bit rate mode













: Constant
Bit rate















: 1 509 Kbps
Channel count













: 6 channels
Channel positions











: Front: L C R, Side: L R, LFE
Sampling rate













: 48.0 KHz
Bit depth















: 24 bits
Compression mode











: Lossy
Stream size














: 1.18 GiB (30%)
Title

















: DTS
Language















: English
Default
















: No
Forced
















: No

Audio #3
ID


















: 4
Format
















: AC-3
Format/Info














: Audio Coding 3
Mode extension












: CM (complete main)
Format settings, Endianness






: Big
Codec ID















: A_AC3
Duration















: 1h 52mn
Bit rate mode













: Constant
Bit rate















: 448 Kbps
Channel count













: 6 channels
Channel positions











: Front: L C R, Side: L R, LFE
Sampling rate













: 48.0 KHz
Bit depth















: 16 bits
Compression mode











: Lossy
Stream size














: 359 MiB (9%)
Title

















: 5.1
Language















: English
Default
















: No
Forced
















: No

Text #1
ID


















: 5
Format
















: UTF-8
Codec ID















: S_TEXT/UTF8
Codec ID/Info













: UTF-8 Plain Text
Title

















: forced
Language















: Hungarian
Default
















: Yes
Forced
















: No

Text #2
ID


















: 6
Format
















: UTF-8
Codec ID















: S_TEXT/UTF8
Codec ID/Info













: UTF-8 Plain Text
Title

















: full
Language















: English
Default
















: No
Forced
















: No
http://www.port.hu/thor:_sotet_vilag_thor:_the_dark_world/pls/fi/films.film_page?i_where=2&i_film_id=142302&i_city_id=-1&i_county_id=-1&i_topic_id=2