Thor2_3D *2013* [mHD.1080p.Half.OU.AC3.Custom.BluRay.x264-LEON 3


Size : 3.9 GiB (4186595102 Bytes)

Thor: Mroczny Świat 3D(OU) - Thor: The Dark World *2013* [mini-HD.1080p.Half.Over-Under.AC3.Custom.BluRay.x264-LEON 345][Lektor,Dubbing i Napisy PL]
=================================================================================


Film w wersji 3D Over-Under.
Do odtworzenia filmu WYMAGANY odpowiedni sprzęt (TV 3D).
=======================================================


Kopia mini-HD 1080p = 3,90 GB

Produkcja: USA
Gatunek: Fantasy, Przygodowy
Czas trwania: 112 min.
Premiera: 08.11.2013 - Polska, 30.10.2013 - Świat
Reżyseria: Alan Taylor
Scenariusz: Christopher Yost, Christopher Markus
http://www.filmweb.pl/film/Thor%3A+Mroczny+świat-2013-622564 http://www.imdb.com/title/tt1981115/

"Thor: Mroczny świat" to kontynuacja przygód Thora, który nie ustaje w walce o ocalenie Ziemi i pozostałych Ośmiu Królestw przed tajemniczym, starszym niż wszechświat wrogiem. Po wydarzeniach z filmów "Thor" i "Avengers", Thor próbuje zaprowadzić porządek w kosmosie, ale starożytna rasa, dowodzona przez mściwego Malekitha powraca, by zepchnąć wszechświat w ciemność. Stając do walki z wrogiem, którego nie może pokonać nawet Asgard pod wodzą Odyna, superbohater musi udać się na niebezpieczną wyprawę, podczas której ponownie zjednoczy siły z Jane Foster i poświęci wszystko, by ratować nas wszystkich.

Obsada:

Chris Hemsworth...Thor

Natalie Portman...Jane Foster

Tom Hiddleston...Loki

Anthony Hopkins...Odyn

Christopher Eccleston...Malekith
Jaimie Alexander...Sif

Zachary Levi...Fandral

Ray Stevenson...Volstagg

General

Format : MPEG-4
Format profile : Base Media
Codec ID : isom
File size : 3.90 GiB
Duration : 1h 52mn
Overall bit rate mode : Variable
Overall bit rate : 4 981 Kbps
Movie name : THOR_2_3D_2013 PL 1080p Custom(Leon 345)
Encoded date : UTC 2014-08-13 20:40:17
Tagged date : UTC 2014-08-13 20:48:34


Video
ID : 1
Format : AVC
Format/Info : Advanced Video Codec
Format profile : [email protected]/* */
Format settings, CABAC : Yes
Format settings, ReFrames : 2 frames
Codec ID : avc1
Codec ID/Info : Advanced Video Coding
Duration : 1h 51mn
Bit rate : 4 300 Kbps
Maximum bit rate : 26.5 Mbps
Width : 1 920 pixels
Height : 1 080 pixels
Display aspect ratio : 16:9
Frame rate mode : Constant
Frame rate : 23.976 fps
Color space : YUV
Chroma subsampling : 4:2:0
Bit depth : 8 bits
Scan type : Progressive
Bits/(Pixel*Frame) : 0.086
Stream size : 3.36 GiB (86%)
Title : Rip by Leon 345
Writing library : x264 core
Language : English
Encoded date : UTC 2014-08-13 20:40:17
Tagged date : UTC 2014-08-13 20:44:13
Color primaries : BT.709
Transfer characteristics : BT.709
Matrix coefficients : BT.709

Audio #1
ID : 2
Format : AAC
Format/Info : Advanced Audio Codec
Format profile : HE-AAC / LC
Codec ID : 40
Duration : 1h 52mn
Bit rate mode : Variable
Bit rate : 224 Kbps
Maximum bit rate : 261 Kbps
Channel(s) : 6 channels
Channel positions : Front: L C R, Side: L R, LFE
Sampling rate : 48.0 KHz / 24.0 KHz
Compression mode : Lossy
Stream size : 180 MiB (4%)
Title : AAC 5.1 Lektor Custom
Language : Polish
Encoded date : UTC 2014-08-13 20:43:39
Tagged date : UTC 2014-08-13 20:44:13

Audio #2
ID : 3
Format : AAC
Format/Info : Advanced Audio Codec
Format profile : HE-AAC / LC
Codec ID : 40
Duration : 1h 52mn
Bit rate mode : Variable
Bit rate : 227 Kbps
Maximum bit rate : 270 Kbps
Channel(s) : 6 channels
Channel positions : Front: L C R, Side: L R, LFE
Sampling rate : 48.0 KHz / 24.0 KHz
Compression mode : Lossy
Stream size : 182 MiB (5%)
Title : AAC 5.1 Dubbing DVD
Language : Polish
Encoded date : UTC 2014-08-13 20:43:51
Tagged date : UTC 2014-08-13 20:44:13

Audio #3
ID : 4
Format : AAC
Format/Info : Advanced Audio Codec
Format profile : HE-AAC / LC
Codec ID : 40
Duration : 1h 52mn
Bit rate mode : Variable
Bit rate : 224 Kbps
Maximum bit rate : 262 Kbps
Channel(s) : 6 channels
Channel positions : Front: L C R, Side: L R, LFE
Sampling rate : 48.0 KHz / 24.0 KHz
Compression mode : Lossy
Stream size : 179 MiB (4%)
Title : AAC 5.1
Language : English
Encoded date : UTC 2014-08-13 20:44:02
Tagged date : UTC 2014-08-13 20:44:13

Source :
A/V - Thor:The Dark World *2013*PL 1080p [2D/3D] BDRemux Custom Leon 345
Lektor PL 5.1 - Custom Leon 345