Timeless 2016 S01E08 Space Race 1080p WEB-DL HEVC DD5.1 x265


Size : 695.26 MiB (729029786 Bytes)

Source:Timeless 2016 S01E08 Space Race 1080p WEB-DL DD5.1 H.264-G4RiS (1.65 GB)


Complete name: Timeless.S01E08.Space.Race.1080p.WEB-DL.HEVC.DD5.1.x265.mkv
Format
















: Matroska
Format version












: Version 4 / Version 2
File size















: 695 MiB
Duration















: 42mn 26s
Overall bit rate











: 2 290 Kbps
Writing application










: Lavf57.25.100

Video

ID


















: 1
Format
















: V_MPEGH/ISO/HEVC
Duration















: 42mn 26s
Bit rate















: 1 860 Kbps
Width

















: 1 916 pixels
Height
















: 1 074 pixels
Display aspect ratio









: 16:9
Frame rate














: 25.000 fps
Bits/(Pixel*Frame)










: 0.036
Stream size














: 565 MiB (81%)
Default
















: Yes
Forced
















: No
DURATION















: 00:42:26.891000000

Audio

ID


















: 2
Format
















: AC-3
Format/Info














: Audio Coding 3
Mode extension












: CM (complete main)
Format settings, Endianness






: Big
Codec ID















: A_AC3
Duration















: 42mn 26s
Bit rate mode













: Constant
Bit rate















: 384 Kbps
Channel(s)














: 6 channels
Channel positions











: Front: L C R, Side: L R, LFE
Sampling rate













: 48.0 KHz
Bit depth















: 16 bits
Compression mode











: Lossy
Stream size














: 117 MiB (17%)
Writing library












: Lavc57.24.102 ac3
Default
















: Yes
Forced
















: No
DURATION















: 00:42:26.911000000

Text

ID


















: 3
Codec ID















: S_TEXT/ASS
Language















: English