Tinie Tempah ft. Jess Glynne – Not Letting Go (2015.HipHoP)


Size : 114.07 MiB (119609362 Bytes)

TINIE TEMPAH ft.JESS GLYNNE - NOT LETTING GO


MPEG4 Music Vid
http://gifyu.com/images/TinieTempah-1.png
http://gifyu.com/images/TinieTempah-2.png

General
Tinie Tempah ft. Jess Glynne - Not Letting Go
Format
















: MPEG-4
Format profile












: Base Media
Codec ID















: isom
File size















: 114 MiB
Duration















: 3mn 53s
Overall bit rate











: 4 093 Kbps
MusicVid name













: Not Letting Go
Performer















: Tinie Tempah ft. Jess Glynne
Genre

















: HipHop
ContentType














: Music Video
Recorded date













: 2015
Copyright















: Tinie Tempah
Cover

















: Yes
Rating
















: ***
Make

















: MeRaDil
Release
















: UK - may 29 - 2015

Video
ID


















: 1
Format
















: AVC
Format/Info














: Advanced Video Codec
Format profile












: [email protected]/* */
Format settings, CABAC








: Yes
Format settings, ReFrames







: 2 frames
Codec ID















: avc1
Codec ID/Info













: Advanced Video Coding
Duration















: 3mn 53s
Bit rate















: 3 832 Kbps
Width

















: 1 920 pixels
Height
















: 1 080 pixels
Display aspect ratio









: 16:9
Frame rate mode












: Constant
Frame rate














: 25.000 fps
Color space














: YUV
Chroma subsampling










: 4:2:0
Bit depth















: 8 bits
Scan type















: Progressive
Bits/(Pixel*Frame)










: 0.074
Stream size














: 107 MiB (94%)

Audio
ID


















: 2
Format
















: AAC
Format/Info














: Advanced Audio Codec
Format profile












: LC
Codec ID















: 40
Duration















: 3mn 53s
Bit rate mode













: Constant
Bit rate















: 256 Kbps
Channel(s)














: 2 channels
Channel positions











: Front: L R
Sampling rate













: 44.1 KHz
Compression mode











: Lossy
Stream size














: 7.13 MiB (6%)

Tinie Tempah * Jess Glynne * British HipHop * Funk * Promo
https://thepiratebay.se/user/MeRaDil