Tomorrowland.(2015).1280p.BluRay.x264.DUBLADO-BR.mp4


Size : 1021.11 MiB (1070706204 Bytes)

* Tomorrowland.(2015).1280p.BluRay.x264.DUBLADO-BR.mp4

* Vídeo da versãocom faixa de áudio DUBLADO em português brasileiro.

* Inclui arquivo de legenda POB.srt

VIDEO:

Format: AVC
Format/Info: Advanced Video Codec
Format profile: [email protected]/* */
Format settings, CABAC: Yes
Format settings, ReFrames: 4 frames
Codec ID: V_MPEG4/ISO/AVC
Duration: 2 h 10 min
Bit rate: 840 kb/s
Width: 1 280 pixels
Height: 584 pixels
Display aspect ratio: 2.2:1
Frame rate mode: Constant
Frame rate: 23.976 (24000/1001) FPS
Original frame rate: 23.976 (23976/1000) FPS
Color space: YUV
Chroma subsampling: 4:2:0
Bit depth: 8 bits
Scan type: Progressive
Bits/(Pixel*Frame): 0.047
Stream size: 781 MiB (77%)
Writing library: x264 core 123 r2189 35cf912

AUDIO

Format: MPEG Audio
Format version: Version 1
Format profile: Layer 3
Codec ID: A_MPEG/L3
Codec ID/Hint: MP3
Duration: 2 h 10 min
Bit rate mode: Constant
Bit rate: 256 kb/s
Channel(s): 2 channels
Sampling rate: 48.0 kHz
Frame rate: 41.667 FPS (1152 spf)
Compression mode: Lossy
Stream size: 238 MiB (23%)
Default: Yes
Forced: No