Traffic 2000 Criterion Collection 1080p BluRay HEVC DD5.1 x265

Magnet Download Torrent Download

Size : 2.99 GiB (3209627685 Bytes)

[Screenshots Gallery Link]


[https://postimg.org/gallery/1gpm93cmm]


Source: Traffic 2000 CC 1080p BluRay x264-MARS (13.40 GB)


Complete name:Traffic.2000.Criterion.Collection.1080p.BluRay.HEVC.DD5.1.x265.mkv
Format
















: Matroska
Format version












: Version 4 / Version 2
File size















: 2.99 GiB
Duration















: 2 h 27 min
Overall bit rate











: 2 896 kb/s
Movie name: Traffic.2000.Criterion.Collection.1080p.BluRay.HEVC.DD5.1.x265
Writing library












: libebml v1.3.4 + libmatroska v1.4.5

Video

ID


















: 1
Format
















: V_MPEGH/ISO/HEVC
Duration















: 2 h 27 min
Bit rate















: 2 510 kb/s
Width

















: 1 920 pixels
Height
















: 1 080 pixels
Display aspect ratio









: 16:9
Frame rate mode












: Constant
Frame rate














: 23.976 (24000/1001) FPS
Color space














: YUV
Chroma subsampling










: 4:2:0
Bit depth















: 8 bits
Bits/(Pixel*Frame)










: 0.050
Stream size














: 2.59 GiB (87%)
Language















: English
Default
















: Yes
Forced
















: No
DURATION















: 02:27:47.484000000

Audio

ID


















: 2
Format
















: E-AC-3
Format/Info














: Audio Coding 3
Format settings, Endianness






: Big
Codec ID















: A_EAC3
Duration















: 2 h 27 min
Bit rate mode













: Constant
Bit rate















: 384 kb/s
Channel(s)














: 6 channels
Channel positions











: Front: L C R, Side: L R, LFE
Sampling rate













: 48.0 kHz
Frame rate














: 187.500 FPS (256 spf)
Compression mode











: Lossy
Stream size














: 406 MiB (13%)
Title

















: E-AC-3 5.1
Language















: English
Default
















: Yes
Forced
















: No

Text #1

ID


















: 3
Codec ID/Info













: UTF-8 Plain Text
Title

















: English

Text #2

ID


















: 4
Codec ID/Info













: UTF-8 Plain Text
Title

















: SDH