Trance Energy Edition 8 2002 DvdRip


Size : 696.72 MiB (730564608 Bytes)

General
Complete name






: Trance Energy Edition 8 2002 EPiC.avi
Format










: AVI
Format/Info







: Audio Video Interleave
File size








: 697 MiB
Duration









: 41mn 22s
Overall bit rate mode


: Variable
Overall bit rate





: 2 354 Kbps
Movie name








: Trance.Energy.2002-DVDivX-EPiC
Subject









: Trance.Energy.2002-DVDivX-EPiC
Writing application



: Nandub v1.0rc2
Writing library





: Nandub build 1853/release

Video
ID












: 0
Format










: MPEG-4 Visual
Codec ID









: DIV3
Codec ID/Hint






: DivX 3 Low
Duration









: 41mn 22s
Bit rate









: 2 156 Kbps
Width










: 640 pixels
Height










: 480 pixels
Display aspect ratio



: 4:3
Frame rate








: 25.000 fps
Color space







: YUV
Chroma subsampling




: 4:2:0
Bit depth








: 8 bits
Compression mode





: Lossy
Bits/(Pixel*Frame)




: 0.281
Stream size







: 638 MiB (92%)

Audio
ID












: 1
Format










: MPEG Audio
Format version






: Version 1
Format profile






: Layer 3
Mode











: Joint stereo
Mode extension






: MS Stereo
Codec ID









: 55
Codec ID/Hint






: MP3
Duration









: 41mn 22s
Bit rate mode






: Variable
Bit rate









: 185 Kbps
Channel(s)








: 2 channels
Sampling rate






: 48.0 KHz
Compression mode





: Lossy
Stream size







: 54.6 MiB (8%)
Alignment








: Aligned on interleaves
Interleave, duration



: 24 ms (0.60 video frame)
Interleave, preload duratio : 95 ms
Writing library





: LAME3.89 (beta)