Transparent S03E02 720p HDTV HEVC 2CH x265


Size : 208.31 MiB (218431646 Bytes)

Source: Transparent S03E02 1080p HDTV x264-ASCENDANCE (1.04 GB)


Complete name: Transparent.S03E02.720p.HDTV.HEVC.2CH.x265.mkv
Format
















: Matroska
Format version












: Version 4 / Version 2
File size















: 208 MiB
Duration















: 28mn 47s
Overall bit rate











: 1 012 Kbps
Movie name














: transparent.s03e02.1080p.sphd
Writing application










: Lavf57.25.100
Writing library












: Lavf57.25.100

Video

ID


















: 1
Format
















: V_MPEGH/ISO/HEVC
Codec ID















: V_MPEGH/ISO/HEVC
Duration















: 28mn 47s
Bit rate















: 799 Kbps
Width

















: 1 280 pixels
Height
















: 640 pixels
Display aspect ratio









: 2.000
Frame rate














: 25.000 fps
Bits/(Pixel*Frame)










: 0.039
Stream size














: 165 MiB (79%)
Writing library












: Lavc57.48.101 libx265
Language















: English
Default
















: Yes
Forced
















: No
DURATION















: 00:28:47.451000000

Audio

ID


















: 2
Format
















: AC-3
Format/Info














: Audio Coding 3
Mode extension












: CM (complete main)
Format settings, Endianness






: Big
Codec ID















: A_AC3
Duration















: 28mn 47s
Bit rate mode













: Constant
Bit rate















: 192 Kbps
Channel(s)














: 2 channels
Channel positions











: Front: L R
Sampling rate













: 48.0 KHz
Bit depth















: 16 bits
Compression mode











: Lossy
Stream size














: 39.5 MiB (19%)
Writing library












: Lavc57.24.102 ac3
Language















: English
Default
















: Yes
Forced
















: No
DURATION















: 00:28:47.455000000