Twin Peaks: Fire Walk With Me (1992)


Size : 775.94 MiB (813627795 Bytes)

Director: David Lynch
Meet Laura Palmer... In a town where nothing is as it seems... And everyone has something to hide.
Essentially a prequel to David Lynch and Mark Frost's earlier TV series "Twin Peaks". The first half-hour or so concerns the investigation by FBI Agent Chet Desmond (Chris Isaak) and his partner Sam Stanley (Kiefer Sutherland) into the murder of night-shift waitress Teresa Banks in the small Washington state town of Deer Meadow. When Desmond finds a mysterious clue to the murder, he inexplicably disappears. The film then cuts to one year later in the nearby town of Twin Peaks and follows the events during the last week in the life of Laura Palmer (Sheryl Lee) a troubled teenage girl with two boyfriends; the hot-tempered rebel Bobby Briggs (Dana Ashbrook) and quiet biker James Hurley (James Marshall), her drug addiction, and her relationship with her difficult (and possible schizophrenic) father Leland (Ray Wise), a story in which her violent murder was later to motivate much of the TV series. Contains a considerable amount of sex, drugs, violence, very loud music and inexplicable imagery.
Written by Douglas Baptie
File Confirmation: Complete name









: C:Documents and SettingsOwnerDesktopconvTorrent_convertTWIN_PEAKS_DVDrip_big_dad_e.mp4 Format












: MPEG-4 Format profile








: Base Media Codec ID











: isom File size











: 776 MiB Duration











: 2h 14mn Overall bit rate







: 805 Kbps Movie name










: TWIN_PEAKS_DVDrip_big_dad_e Encoded date









: UTC 2009-08-11 03:00:04 Tagged date










: UTC 2009-08-11 03:00:04 Comment












: QuickTime 6.0 or greater
Video ID














: 1 Format












: MPEG-4 Visual Format profile








: [email protected]/* */ Format settings, BVOP





: No Format settings, QPel





: No Format settings, GMC





: No warppoints Format settings, Matrix




: Default (H.263) Codec ID











: 20 Duration











: 2h 14mn Bit rate mode









: Constant Bit rate











: 688 Kbps Nominal bit rate







: 768 Kbps Width













: 320 pixels Height












: 192 pixels Display aspect ratio





: 1.667 Frame rate mode








: Constant Frame rate










: 29.970 fps Resolution










: 24 bits Colorimetry










: 4:2:0 Scan type











: Progressive Bits/(Pixel*Frame)






: 0.374 Stream size










: 663 MiB (85%) Writing library








: XviD 1.1.0 (UTC 2005-11-22) Encoded date









: UTC 2009-08-11 03:00:04 Tagged date










: UTC 2009-08-11 03:00:04
Audio ID














: 2 Format












: AAC Format/Info










: Advanced Audio Codec Format version








: Version 4 Format profile








: LC Format settings, SBR





: No Codec ID











: 40 Duration











: 2h 14mn Bit rate mode









: Constant Bit rate











: 112 Kbps Channel(s)










: 2 channels Channel positions







: L R Sampling rate









: 48.0 KHz Resolution










: 16 bits Stream size










: 108 MiB (14%) Encoded date









: UTC 2009-08-11 03:00:04 Tagged date










: UTC 2009-08-11 03:00:04
File Scan: Malwarebytes' Anti-Malware 1.40 Database version: 2606 Windows 5.1.2600 Service Pack 3
8/13/2009 2:46:21 AM mbam-log-2009-08-13 (02-46-21).txt
Scan type: Quick Scan Objects scanned: 1 Time elapsed: 1 minute(s), 15 second(s)
Memory Processes Infected: 0 Memory Modules Infected: 0 Registry Keys Infected: 0 Registry Values Infected: 0 Registry Data Items Infected: 0 Folders Infected: 0 Files Infected: 0
Memory Processes Infected: (No malicious items detected)
Memory Modules Infected: (No malicious items detected)
Registry Keys Infected: (No malicious items detected)
Registry Values Infected: (No malicious items detected)
Registry Data Items Infected: (No malicious items detected)
Folders Infected: (No malicious items detected)
Files Infected: (No malicious items detected)








When using TPB please read these important notes:



01- Anti-malware apps may warn about keygens, patches, cracks, etc., because of


their capabilities, (generating codes, etc.). Sometimes they're added to


the virus/spyware database and will be detected as malware. If you don't trust

the keygens, patches, cracks, etc., don't use them.


02- Before running .exe-files, keygens, patches, cracks, etc., always check first


if they can be unpacked. Often some third party added a virus to the


original file, repacked it and uploaded it again.
03- Letting anti-malware apps send scan results to their companies can cause

keygens, patches, cracks, etc., to be added to their virus-database.
04- Firewalls which are set to automatically determine connections will allow


apps & malware! Avoid this by manually configuring your firewall.
05- Usually new torrents with many downloads/seeders in a brief period

are suspicious! Torrents with the Skull & Crossbones icon are trusted.
06- Some people create multiple accounts and post fake comments and/or files.

They seldom make valid comments and may have a couple torrents to appear

passable.


07- Clicking on unknown links can cause malware to be installed on your machine.

08- In general often there are more fake and negative comments than reliable and

positive comments.
09- In some countries uploading/downloading copyright protected material is


forbidden, but showing some appreciation to reliable up-loaders is not.
10- Posting fake and negative comments or fake/infected uploads on TPB can result

in being banned from TPB!

For reporting bad or suspicious torrents: http://forum.suprbay.org/forumdisplay.php?fid=29
For more of my torrents: https://thepiratebay.se/user/big_dad_e/

(SSL)
All torrents scanned with: Norton Anti-virus Malwarebytes' Anti-malware
ALWAYS SEED!

Quicktime for iPod