Up (2009) [1080p] [3D] [HSBS] [Greek Audio]


Size : 1.52 GiB (1635098178 Bytes)

General

Complete name













: Up 3D (2009) HSBS BrRip x264 - 1.5GB - YIFY.GreekAudio.mkv
Format
















: Matroska
Format version












: Version 4 / Version 2
File size















: 1.52 GiB
Duration















: 1h 36mn
Overall bit rate mode









: Variable
Overall bit rate











: 2 270 Kbps
Encoded date













: UTC 2013-03-31 10:03:47
Writing application










: mkvmerge v6.1.0 ('Old Devil') built on Mar
2 2013 14:32:37
Writing library












: libebml v1.3.0 + libmatroska v1.4.0

Video

ID


















: 1
Format
















: AVC
Format/Info














: Advanced Video Codec
Format profile












: [email protected]/* */
Format settings, CABAC








: Yes
Format settings, ReFrames







: 4 frames
Codec ID















: V_MPEG4/ISO/AVC
Duration















: 1h 36mn
Bit rate mode













: Variable
Bit rate















: 2 141 Kbps
Maximum bit rate











: 25.0 Mbps
Width

















: 1 920 pixels
Height
















: 1 080 pixels
Display aspect ratio









: 16:9
Frame rate mode












: Constant
Frame rate














: 23.976 fps
Color space














: YUV
Chroma subsampling










: 4:2:0
Bit depth















: 8 bits
Scan type















: Progressive
Bits/(Pixel*Frame)










: 0.043
Stream size














: 1.41 GiB (92%)
Writing library












: x264 core 120 r2120 0c7dab9
Encoding settings











: cabac=1 / ref=4 / deblock=1:0:0 / analyse=0x3:0x133 / me=umh / subme=9 / psy=1 / psy_rd=1.00:0.00 / mixed_ref=1 / me_range=16 / chroma_me=1 / trellis=2 / 8x8dct=1 / cqm=0 / deadzone=21,11 / fast_pskip=1 / chroma_qp_offset=-2 / threads=6 / sliced_threads=0 / nr=0 / decimate=1 / interlaced=0 / bluray_compat=0 / constrained_intra=0 / bframes=3 / b_pyramid=0 / b_adapt=2 / b_bias=0 / direct=3 / weightb=1 / open_gop=0 / weightp=2 / keyint=240 / keyint_min=24 / scenecut=40 / intra_refresh=0 / rc_lookahead=60 / rc=2pass / mbtree=1 / bitrate=2141 / ratetol=1.0 / qcomp=0.60 / qpmin=0 / qpmax=69 / qpstep=4 / cplxblur=20.0 / qblur=0.5 / vbv_maxrate=25000 / vbv_bufsize=25000 / nal_hrd=vbr / ip_ratio=1.40 / aq=1:1.00
Default
















: Yes
Forced
















: No

Audio

ID


















: 2
Format
















: MPEG Audio
Format version












: Version 1
Format profile












: Layer 3
Mode

















: Joint stereo
Codec ID















: A_MPEG/L3
Codec ID/Hint













: MP3
Duration















: 1h 36mn
Bit rate mode













: Constant
Bit rate















: 128 Kbps
Channel(s)














: 2 channels
Sampling rate













: 44.1 KHz
Compression mode











: Lossy
Stream size














: 87.9 MiB (6%)
Writing library












: LAME3.98.2
Default
















: Yes
Forced
















: No