Utopia.Season.2.Complete.720p.HDTV.x264-SCENE


Size : 4.58 GiB (4916632039 Bytes)

My connection is slow. Please be patient. Please seed to at least 1.5 ratio so others can enjoy the show too. Thank You.

-------------------------------------------

Utopia.Season.2.Complete.720p.HDTV.x264-SCENE
Aired: 2014-07-14 - 2013-08-12

-------------------------------------------

Files:

Utopia.2x01.REPACK.720p_HDTV_x264-FoV.mkv
Utopia.S02E02.720p.HDTV.x264-TLA.mkv
Utopia.S02E03.720p.HDTV.x264-TLA.mkv
Utopia.S02E04.720p.HDTV.x264-TLA.mkv
Utopia.2x05.720p_HDTV_x264-FoV.mkv
Utopia.2x06.720p_HDTV_x264-FoV.mkv

-------------------------------------------

MediaInfo:

General
Complete name













: Utopia.2x01.REPACK.720p_HDTV_x264-FoV.mkv
Format
















: Matroska
File size















: 928 MiB
Duration















: 53mn 1s
Overall bit rate











: 2 447 Kbps

Video
Format
















: AVC
Format profile












: [email protected]/* */
Format settings, CABAC








: Yes
Format settings, ReFrames







: 5 frames
Bit rate















: 2 014 Kbps
Width

















: 1 280 pixels
Height
















: 720 pixels
Display aspect ratio









: 16:9
Frame rate mode












: Constant
Frame rate














: 25.000 fps
Color space














: YUV
Chroma subsampling










: 4:2:0
Bit depth















: 8 bits
Scan type















: Progressive
Bits/(Pixel*Frame)










: 0.087
Stream size














: 764 MiB (82%)
Writing library












: x264 core 142 r2431 ac76440
Encoding settings











: cabac=1 / ref=5 / deblock=1:0:0 / analyse=0x3:0x113 / me=umh / subme=8 / psy=1 / psy_rd=1.00:0.00 / mixed_ref=1 / me_range=16 / chroma_me=1 / trellis=1 / 8x8dct=1 / cqm=0 / deadzone=21,11 / fast_pskip=1 / chroma_qp_offset=-2 / threads=12 / lookahead_threads=2 / sliced_threads=0 / nr=0 / decimate=1 / interlaced=0 / bluray_compat=0 / constrained_intra=0 / bframes=3 / b_pyramid=2 / b_adapt=2 / b_bias=0 / direct=3 / weightb=1 / open_gop=0 / weightp=2 / keyint=250 / keyint_min=25 / scenecut=40 / intra_refresh=0 / rc_lookahead=50 / rc=crf / mbtree=1 / crf=18.0 / qcomp=0.60 / qpmin=0 / qpmax=69 / qpstep=4 / ip_ratio=1.40 / aq=1:1.00

Audio
Format
















: AC-3
Bit rate mode













: Constant
Bit rate















: 384 Kbps
Channel(s)














: 6 channels
Channel positions











: Front: L C R, Side: L R, LFE
Sampling rate













: 48.0 KHz
Bit depth















: 16 bits
Compression mode











: Lossy
Stream size














: 146 MiB (16%)