Valkyrie 2008 1080p BluRay HEVC DD5.1 x265


Size : 2.48 GiB (2667004751 Bytes)

Source:Valkyrie 2008 1080p BluRay x264-REFiNED (8.75 GB)


Complete name: Valkyrie.2008.1080p.BluRay.HEVC.DD5.1.x265.mkv
Format
















: Matroska
File size















: 2.48 GiB
Format version












: Version 4 / Version 2
Duration















: 2h 0mn
Overall bit rate











: 2 955 Kbps
Writing application










: Lavf57.41.100

Video

ID


















: 1
Format
















: V_MPEGH/ISO/HEVC
Duration















: 2h 0mn
Bit rate















: 2 512 Kbps
Width

















: 1 920 pixels
Height
















: 1 040 pixels
Display aspect ratio









: 1.85:1
Frame rate














: 23.976 fps
Bits/(Pixel*Frame)










: 0.052
Stream size














: 2.11 GiB (85%)
Title : Valkyrie.2008.1080p.BluRay.HEVC.DD5.1.x265
Language















: English
Default
















: Yes
Forced
















: No
DURATION















: 02:00:20.922000000

Audio

ID


















: 2
Format
















: E-AC-3
Format/Info














: Audio Coding 3
Format settings, Endianness






: Big
Codec ID















: A_EAC3
Duration















: 2h 0mn
Bit rate mode













: Constant
Bit rate















: 384 Kbps
Channel(s)














: 6 channels
Channel positions











: Front: L C R, Side: L R, LFE
Sampling rate













: 48.0 KHz
Compression mode











: Lossy
Stream size














: 331 MiB (13%)
Title

















: E-AC-3 5.1
Language















: English
Default
















: Yes
Forced
















: No

Text

ID


















: 3
Format
















: UTF-8
Title

















: English SDH
Language















: English