Valkyrie 2008 720p BluRay HEVC 2CH x265


Size : 990.92 MiB (1039049807 Bytes)

Source:Valkyrie 2008 1080p BluRay x264-REFiNED (8.75 GB)


Complete name: Along.Came.a.Spider.2001.1080p.BluRay.HEVC.2CH.x265.mkv
Format
















: Matroska
Format version












: Version 4 / Version 2
File size















: 991 MiB
Duration















: 2h 0mn
Overall bit rate











: 1 151 Kbps
Writing application










: Lavf57.41.100

Video

ID


















: 1
Format
















: V_MPEGH/ISO/HEVC
Duration















: 2h 0mn
Bit rate















: 808 Kbps
Width

















: 1 280 pixels
Height
















: 696 pixels
Display aspect ratio









: 1.85:1
Frame rate














: 25.000 fps
Bits/(Pixel*Frame)










: 0.036
Stream size














: 696 MiB (70%)
Default
















: Yes
Forced
















: No
DURATION















: 02:00:20.971000000

Audio

ID


















: 2
Format
















: AC-3
Format/Info














: Audio Coding 3
Mode extension












: CM (complete main)
Format settings, Endianness






: Big
Codec ID















: A_AC3
Duration















: 2h 0mn
Bit rate mode













: Constant
Bit rate















: 320 Kbps
Channel(s)














: 2 channels
Channel positions











: Front: L R
Sampling rate













: 48.0 KHz
Bit depth















: 16 bits
Compression mode











: Lossy
Stream size














: 275 MiB (28%)
Writing library












: Lavc57.24.102 ac3
Default
















: Yes
Forced
















: No
DURATION















: 02:00:20.991000000

Text

ID


















: 3
Format
















: ASS
Codec ID















: S_TEXT/ASS
Language















: English