Vikings S04E11 The Outsider 1080p WEB-DL HEVC DD5.1 x265


Size : 724.8 MiB (760010595 Bytes)

Source:Vikings S04E11 1080p WEB-DL x264-FUM (1.73 GB)


Complete name: Vikings.S04E011.The.Outsider.1080p.WEB.DL.HEVC.DD5.1.x265.mkv
Format
















: Matroska
Format version












: Version 4 / Version 2
File size















: 725 MiB
Duration















: 44mn 41s
Overall bit rate











: 2 268 Kbps
Writing application










: Lavf57.25.100

Video
ID


















: 1
Format
















: V_MPEGH/ISO/HEVC
Duration















: 44mn 41s
Bit rate















: 1 839 Kbps
Width

















: 1 916 pixels
Height
















: 1 076 pixels
Display aspect ratio









: 16:9
Frame rate














: 25.000 fps
Bits/(Pixel*Frame)










: 0.036
Stream size














: 588 MiB (81%)
Default
















: Yes
Forced
















: No
DURATION















: 00:44:41.211000000

Audio

ID


















: 2
Format
















: AC-3
Format/Info














: Audio Coding 3
Mode extension












: CM (complete main)
Format settings, Endianness






: Big
Codec ID















: A_AC3
Duration















: 44mn 41s
Bit rate mode













: Constant
Bit rate















: 384 Kbps
Channel(s)














: 6 channels
Channel positions











: Front: L C R, Side: L R, LFE
Sampling rate













: 48.0 KHz
Bit depth















: 16 bits
Compression mode











: Lossy
Stream size














: 123 MiB (17%)
Writing library












: Lavc57.24.102 ac3
Default
















: Yes
Forced
















: No
DURATION















: 00:44:41.247000000

Text

ID


















: 3
Codec ID















: S_TEXT/ASS
Default
















: No