Vive la France (2013) x264 aac Ukrainian subtitles

Magnet Download Torrent Download

Size : 763.19 MiB (800259621 Bytes)

 Vive la France.2013.mp4
Format : MPEG-4
Format profile : Base Media
Codec ID : isom
File size : 763 MiB
Duration : 1h 36mn
Overall bit rate : 1 101 Kbps
Movie name : Vive la France*2013 /antusyrzhuk
Genre : Comedy
Recorded date : 2013
Writing application : ShanaEncoder
Comment :
Video
ID : 1
Format : AVC
Format/Info : Advanced Video Codec
Format profile : [email protected]/* */
Format settings, CABAC : Yes
Format settings, ReFrames : 4 frames
Codec ID : avc1
Codec ID/Info : Advanced Video Coding
Duration : 1h 36mn
Bit rate : 980 Kbps
Width : 800 pixels
Height : 500 pixels
Display aspect ratio : 16:10
Frame rate mode : Variable
Frame rate : 24.000 fps
Minimum frame rate : 23.814 fps
Maximum frame rate : 24.381 fps
Color space : YUV
Chroma subsampling : 4:2:0
Bit depth : 8 bits
Scan type : Progressive
Bits/(Pixel*Frame) : 0.102
Stream size : 679 MiB (89%)
Writing library : x264 core 123 r2189 35cf912
Encoding settings : cabac=1 // deblock=1:0:0 / analyse=0x3:0x113 / me=umh / subme=7 / psy=1 / psy_rd=1.00:0.00 // me_range=16 / chroma_me=1 / trellis=1 / 8x8dct=1 / cqm=0 / deadzone=21,11 / fast_pskip=1 / chroma_qp_offset=-2 / threads=3 / sliced_threads=0 / nr=0 / decimate=1 / interlaced=0 / bluray_compat=0 / constrained_intra=0 / bframes=3 / b_pyramid=2 / b_adapt=0 / b_bias=0 / direct=3 / weightb=1 / open_gop=0 / weightp=2 / keyint=250 / keyint_min=24 / scenecut=40 / intra_refresh=0 / rc_lookahead=40 / rc=2pass / mbtree=1 / bitrate=980 / ratetol=1.0 / qcomp=0.60 / qpmin=10 / qpmax=51 / qpstep=4 / cplxblur=20.0 / qblur=0.5 / ip_ratio=1.00 / aq=1:1.00

Audio
ID : 2
Format : AAC
Format/Info : Advanced Audio Codec
Format profile : LC
Codec ID : 40
Duration : 1h 36mn
Bit rate mode : Constant
Bit rate : 115 Kbps
Channel count : 2 channels
Channel positions : Front: L R
Sampling rate : 48.0 KHz
Compression mode : Lossy
Stream size : 79.7 MiB (10%)


Screenshots: http://img833.imageshack.us/img833/5038/9j7i.png http://img69.imageshack.us/img69/732/0w3o.png http://img850.imageshack.us/img850/2822/967i.png http://img17.imageshack.us/img17/759/y0qj.png