Viy 3D*2014*[mHD.1080p.HOU.AC3.SUBBEDPL.BR.x264-LEON 345]


Size : 3.99 GiB (4289222339 Bytes)

Film w wersji 3D Over-Under.
Do odtworzenia filmu WYMAGANY odpowiedni sprzęt (TV 3D).

=====================================================================
UWAGA!!! Wstawiam na prośby.Napisy na stałe wrenderowane w film. Ci co mieli jakiekolwiek kłopoty z napisami w filmach 3D - Zapraszam !!!!!!!!
=====================================================================

Kopia mini-HD 1080p = 3,99 GB
http://www.imdb.com/title/tt1224378/

gatunek: Horror
produkcja: Czechy,Niemcy,Rosja,Ukraina,Wielka Brytania
premiera: 23 stycznia 2014 (świat)
reżyseria: Oleg Stepchenko
scenariusz: Oleg Stepchenko,Aleksandr Karpov
obsada: Viktor Bychkov, Emma Cerná, Aleksey Chadov


Angielski kartograf podczas wyprawy na wschód Europy trafi na zapomnianą wioskę w ukraińskich lasach, której mieszkańcy są bardzo specyficzni.
„Wij” to rosyjski horror oparty na opowiadaniu Mikołaja Gogola o legendarnym stworze Wij, który uśmiercał spojrzeniem. Produkcja filmu zaczęła się w 2005 roku i została przerwana ze względu na brak finansów. Obraz filmowy opowiada historię angielskiego kartografa Jonatana Greena, który w XVIII wieku podjął się wyprawy naukowej z zachodniej Europy na Wschód. Po przejściu Transylwanii i Karpat znalazł się przez przypadek w małej, zapomnianej przez ludzi wiosce na Ukrainie. Wioska ukryta w gęstych lasach, pełnych mgły, odgrodzona była od reszty świata głęboką fosą. Mieszkańcy to bardzo specyficznie ludzie, którzy mieli przeświadczenie, że fosa może ich ochronić przed wszelkim złem. W swej naiwności wierzyli, że dzięki temu zło nie pojawi się w ich świecie. Film porusza problem zła, które tak naprawdę rodzi się w głębokich zakamarkach duszy człowieka i w każdej chwili może eksplodować.

General

Format : Matroska
Format version : Version 2
File size : 3.99 GiB
Duration : 2h 10mn
Overall bit rate : 4 392 Kbps
Movie name : Wij(2013) Blu-ray [3D/2D] 1080p AVC DTS-HD 5.1-HDClub.Title0.BlurayRip by Leon 345
Encoded date : UTC 2014-04-20 06:52:20
Writing application : mkvmerge v5.7.0 ('The Whirlwind') built on Jul 8 2012 20:08:51
Writing library : libebml v1.2.3 + libmatroska v1.3.0

Video
ID : 1
Format : AVC
Format/Info : Advanced Video Codec
Format profile : [email protected]/* */
Format settings, CABAC : Yes
Format settings, ReFrames : 2 frames
Codec ID : V_MPEG4/ISO/AVC
Duration : 2h 10mn
Bit rate : 3 900 Kbps
Width : 1 920 pixels
Height : 1 080 pixels
Display aspect ratio : 16:9
Frame rate mode : Constant
Frame rate : 23.976 fps
Color space : YUV
Chroma subsampling : 4:2:0
Bit depth : 8 bits
Scan type : Progressive
Bits/(Pixel*Frame) : 0.078
Stream size : 3.51 GiB (88%)
Title : Rip by Leon 345 subbed PL
Writing library : x264 core
Default : Yes
Forced : No
Color primaries : BT.709
Transfer characteristics : BT.709
Matrix coefficients : BT.709

Audio
ID : 2
Format : AC-3
Format/Info : Audio Coding 3
Mode extension : CM (complete main)
Format settings, Endianness : Big
Codec ID : A_AC3
Duration : 2h 10mn
Bit rate mode : Constant
Bit rate : 448 Kbps
Channel(s) : 6 channels
Channel positions : Front: L C R, Side: L R, LFE
Sampling rate : 48.0 KHz
Bit depth : 16 bits
Compression mode : Lossy
Stream size : 417 MiB (10%)
Language : Russian
Default : Yes
Forced : No

Menu
00:00:00.000 : en:(01)00:00:00:000
00:16:15.474 : en:(02)00:16:15:474
00:32:07.634 : en:(03)00:32:07:634
00:44:54.650 : en:(04)00:44:54:650
01:07:12.195 : en:(05)01:07:12:195
01:20:37.791 : en:(06)01:20:37:791
01:37:30.802 : en:(07)01:37:30:802
01:52:43.131 : en:(08)01:52:43:131

Source [thx]:
A/V- Вий(2013) Blu-ray [3D/2D] 1080p AVC DTS-HD 5.1-HDClub