Walking.With.Dinosaurs.3D.2013.1080p.BRRip.HSBS.x264.Hun.Eng


Size : 8.94 GiB (9604559971 Bytes)

Walking.With.Dinosaurs.3D.2013.1080p.BRRip.HSBS.x264.Hun.Eng
http://www.imdb.com/title/tt1762399/

General
Unique ID















: 188917996199995472516329901741174107521 (0x8E204857EAFACF3D90486FB6B5072D81)
Complete name













: F:Walking.With.Dinosaurs.3D.2013.1080p.BRRip.HSBS.x264.Hun.EngWalking With Dinosaurs 3D (2013) HSBS 1080p.mkv
Format
















: Matroska
Format version












: Version 4 / Version 2
File size















: 8.94 GiB
Duration















: 1h 27mn
Overall bit rate











: 14.6 Mbps
Encoded date













: UTC 2014-05-07 07:11:14
Writing application










: mkvmerge v6.9.1 ('Blue Panther') 64bit built on Apr 18 2014 18:23:38
Writing library












: libebml v1.3.0 + libmatroska v1.4.1

Video
ID


















: 1
Format
















: AVC
Format/Info














: Advanced Video Codec
Format profile












: [email protected]/* */
MultiView_Count












: 2
MultiView_Layout











: Side by Side (left eye first)
Format settings, CABAC








: Yes
Format settings, ReFrames







: 4 frames
Codec ID















: V_MPEG4/ISO/AVC
Duration















: 1h 27mn
Bit rate















: 12.4 Mbps
Width

















: 1 920 pixels
Height
















: 1 080 pixels
Display aspect ratio









: 16:9
Frame rate mode












: Constant
Frame rate














: 23.976 fps
Color space














: YUV
Chroma subsampling










: 4:2:0
Bit depth















: 8 bits
Scan type















: Progressive
Bits/(Pixel*Frame)










: 0.249
Stream size














: 7.57 GiB (85%)
Title

















: Walking With Dinosaurs 3D (2013) 1080p HSBS
Writing library












: x264 core 142 r2389 956c8d8
Encoding settings











: cabac=1 / ref=4 / deblock=1:-3:-3 / analyse=0x3:0x113 / me=esa / subme=10 / psy=1 / psy_rd=1.15:0.02 / mixed_ref=1 / me_range=32 / chroma_me=1 / trellis=2 / 8x8dct=1 / cqm=0 / deadzone=21,11 / fast_pskip=0 / chroma_qp_offset=-3 / threads=6 / lookahead_threads=1 / sliced_threads=0 / nr=0 / decimate=1 / interlaced=0 / bluray_compat=0 / constrained_intra=0 / bframes=9 / b_pyramid=2 / b_adapt=2 / b_bias=0 / direct=3 / weightb=1 / open_gop=0 / weightp=2 / keyint=230 / keyint_min=23 / scenecut=40 / intra_refresh=0 / rc_lookahead=40 / rc=crf / mbtree=0 / crf=16.7 / qcomp=0.65 / qpmin=0 / qpmax=69 / qpstep=4 / vbv_maxrate=50000 / vbv_bufsize=62500 / crf_max=0.0 / nal_hrd=none / filler=0 / frame-packing=3 / ip_ratio=1.20 / pb_ratio=1.30 / aq=1:0.85
Default
















: Yes
Forced
















: No
Matrix coefficients










: BT.709

Audio #1
ID


















: 2
Format
















: AC-3
Format/Info














: Audio Coding 3
Mode extension












: CM (complete main)
Format settings, Endianness






: Big
Codec ID















: A_AC3
Duration















: 1h 27mn
Bit rate mode













: Constant
Bit rate















: 448 Kbps
Channel(s)














: 6 channels
Channel positions











: Front: L C R, Side: L R, LFE
Sampling rate













: 48.0 KHz
Bit depth















: 16 bits
Compression mode











: Lossy
Stream size














: 280 MiB (3%)
Title

















: 5.1
Language















: Hungarian
Default
















: Yes
Forced
















: No

Audio #2
ID


















: 3
Format
















: DTS
Format/Info














: Digital Theater Systems
Mode

















: 16
Format settings, Endianness






: Big
Codec ID















: A_DTS
Duration















: 1h 27mn
Bit rate mode













: Constant
Bit rate















: 1 509 Kbps
Channel(s)














: 6 channels
Channel positions











: Front: L C R, Side: L R, LFE
Sampling rate













: 48.0 KHz
Bit depth















: 24 bits
Compression mode











: Lossy
Stream size














: 945 MiB (10%)
Title

















: DTS 5.1
Language















: English
Default
















: No
Forced
















: No

Text #1
ID


















: 4
Format
















: VobSub
Muxing mode














: zlib
Codec ID















: S_VOBSUB
Codec ID/Info













: The same subtitle format used on DVDs
Title

















: full 3D
Language















: Hungarian
Default
















: No
Forced
















: No

Text #2
ID


















: 5
Format
















: VobSub
Muxing mode














: zlib
Codec ID















: S_VOBSUB
Codec ID/Info













: The same subtitle format used on DVDs
Title

















: full 3D
Language















: English
Default
















: No
Forced
















: No
http://www.port.hu/dinoszauruszok_-_a_fold_urai_walking_with_dinosaurs_3d/pls/fi/films.film_page?i_where=2&i_film_id=146035&i_city_id=-1&i_county_id=-1&i_topic_id=2